Все Тут Online

Все Тут Online (http://vsetutonline.com/forum/index.php)
-   Музыка других жанров [Instrumental; Blues; Jazz; Классическая музыка] (Lossless) (http://vsetutonline.com/forum/forumdisplay.php?f=688)
-   -   (24/96) Jean-Michel Jarre ‎– Magnetic Fields (1981) (с винила на магнитную ленту и в цифру) (lossless) (http://vsetutonline.com/forum/showthread.php?t=107988)

Борис 63 12.01.2018 10:26

(24/96) Jean-Michel Jarre ‎– Magnetic Fields (1981) (с винила на магнитную ленту и в цифру) (lossless)
 
https://c.radikal.ru/c19/1801/36/c5328dddd6d4.jpg


Оцифровка с катушки Игоря (Капитан_Воронин) - Спасибо ему.

Сами определяйте , точно знаете , кто исполняет.:icon_drinks:

Треклист:

01 Jean-Michel Jarre - Magnetic Fields Part 1
02 Jean-Michel Jarre - Magnetic Fields Part 2
03 Jean-Michel Jarre - Magnetic Fields Part 3
04 Jean-Michel Jarre - Magnetic Fields Part 4
05 Jean-Michel Jarre - Magnetic Fields Part 5 (The Last Rumba)


ссылка


Скрытый текст (вы должны зарегистрироваться или войти под своим логином):
У вас нет прав чтобы видеть скрытый текст, содержащейся здесь.

cthutq_1956 12.01.2018 13:10

Jean Michel Jarre - Magnetic Fields (1981)
С этим альбомом были гастроли в Китае 1982 вышел двойной винил The Concerts In China 1982 ,тоже пользовался популярностью .

Magnetic Fields Part 1 — 17:49
Magnetic Fields Part 2 — 3:59
Magnetic Fields Part 3 — 4:15
Magnetic Fields Part 4 — 6:18
Magnetic Fields Part 5 — 3:30

ТОМ 12.01.2018 13:15

Послушаем, сравним...

Дмитрий 12.01.2018 13:18

http://img-fotki.yandex.ru/get/87795...4be56_orig.png

Цитата:

Сообщение от cthutq_1956 (Сообщение 362986)
Jean Michel Jarre - Magnetic Fields (1981)

оч.хорошо!
ещё надо название трков
какие в cue будем вписвыть

ТОМ 12.01.2018 13:37

Цитата:

Сообщение от Дмитрий (Сообщение 362989)
http://img-fotki.yandex.ru/get/87795...4be56_orig.png



оч.хорошо!
ещё надо название трков
какие в cue будем вписвыть

Там просто все Magnetic Fields part 1-5

Дмитрий 12.01.2018 13:38

CUE: https://yadi.sk/d/E1flvHNA3RQ4nH

Код:

REM GENRE " Electronic, Ambient "
REM DATE 1981
REM COMMENT "Оцифровка - Борис 63"
TITLE "Magnetic Fields"
PERFORMER "Jean-Michel Jarre"
FILE "Инстр..flac" WAVE
  TRACK 01 AUDIO
TITLE "Magnetic Fields Part 1"
PERFORMER "Jean-Michel Jarre"
    INDEX 01 00:00:00
  TRACK 02 AUDIO
TITLE "Magnetic Fields Part 2"
PERFORMER "Jean-Michel Jarre"
    INDEX 01 17:49:70
  TRACK 03 AUDIO
TITLE "Magnetic Fields Part 3"
PERFORMER "Jean-Michel Jarre"
    INDEX 01 23:13:31
  TRACK 04 AUDIO
TITLE "Magnetic Fields Part 4"
PERFORMER "Jean-Michel Jarre"
    INDEX 01 25:42:44
  TRACK 05 AUDIO
TITLE "Magnetic Fields Part 5 (The Last Rumba)"
PERFORMER "Jean-Michel Jarre"
    INDEX 01 32:15:46


Дмитрий 12.01.2018 13:39

ТОМ, все верно! проверяй правильно ли поделил на треки, пауз нет.

http://img-fotki.yandex.ru/get/6703/...72c1b_orig.png

Дмитрий 12.01.2018 13:44

cthutq_1956,
ТОМ, нужны помошники :icon_drinks::icon_friends:
Очень много времени уходит на оформление!

ТОМ 12.01.2018 15:11

Цитата:

Сообщение от Дмитрий (Сообщение 362993)
cthutq_1956,
ТОМ, нужны помошники :icon_drinks::icon_friends:
Очень много времени уходит на оформление!

Я не умею куи резать....:icon_cray:

cthutq_1956 12.01.2018 15:16

Чем могу помогу ,сие я последнее время престал делать ,через раз получается мозги не те . :icon_pardon:


Часовой пояс GMT, время: 13:56.

Powered by vBulletin® Version 3.8.2
Copyright ©2000 - 2018, Jelsoft Enterprises Ltd. Перевод: zCarot