Все Тут Online

Все Тут Online (http://vsetutonline.com/forum/index.php)
-   Раздел собственных оцифровок с винила (http://vsetutonline.com/forum/forumdisplay.php?f=725)
-   -   [24/192] ARABESQUE (МируМир) (1978-1984) [WAV] {MIR 100720, MIR 100721, MIR 100722, MIR 100723, MIR 100724, MIR 100725, MIR 100726, MIR 100727, MIR 100728} (http://vsetutonline.com/forum/showthread.php?t=111339)

Дмитрий 02.05.2018 17:27

[24/192] ARABESQUE (МируМир) (1978-1984) [WAV] {MIR 100720, MIR 100721, MIR 100722, MIR 100723, MIR 100724, MIR 100725, MIR 100726, MIR 100727, MIR 100728}
 
Оцифровка с новым звукоснимателем Audio-Technica AT-440 MLB


Arabesque - 1978

Arabesque ‎– Friday Night - 1978 (Мирумир ‎– MIR100720)


https://c.radikal.ru/c11/1805/73/4ccb459c1c1a.png

Треклист:

01 Arabesque - Hello Mr. Monkey
02 Arabesque - Fly High, Little Butterfly
03 Arabesque - Someone Is Waiting For You
04 Arabesque - The Man With The Gun
05 Arabesque - Six Times A Day
06 Arabesque - Buggy Boy
07 Arabesque - Friday Night
08 Arabesque - Catch Me Tiger
09 Arabesque - Give It Up
10 Arabesque - Love Is Just A Game

Ccылки на скачивание:

Скрытый текст (вы должны зарегистрироваться или войти под своим логином):
У вас нет прав чтобы видеть скрытый текст, содержащейся здесь.



Arabesque - 1979

Arabesque ‎– City Cats - 1979 (Мирумир ‎– MIR 100721)


https://d.radikal.ru/d18/1805/7e/cf994d66f227.png

Треклист:

01 Arabesque - City Cats
02 Arabesque - Peppermint Jack
03 Arabesque - Rock Me After Midnight
04 Arabesque - Dancin' In The Fire Of Love
05 Arabesque - Helldriver
06 Arabesque - Don't Kiss A Crocodile
07 Arabesque - Lucifers Lover
08 Arabesque - Plastic Heart
09 Arabesque - In The Heat Of The Disco Night
10 Arabesque - It's So Hard To Leave You

Ccылки на скачивание:

Скрытый текст (вы должны зарегистрироваться или войти под своим логином):
У вас нет прав чтобы видеть скрытый текст, содержащейся здесь.


Arabesque - 1980-1

Arabesque ‎– Marigot Bay - 1980 (Мирумир ‎– MIR 100722)




https://b.radikal.ru/b16/1805/13/bb562ca81c40.png

Треклист:

01 Arabesque - High Life
02 Arabesque - Jingle Jangle Joe
03 Arabesque - Roller Star
04 Arabesque - Marigot Bay (Deluxe Edition)
05 Arabesque - Marigot Bay
06 Arabesque - Rock ‘n’ Roll Fan (Exclusive Bonus Track)
07 Arabesque - Parties In The Penthouse
08 Arabesque - Once In A Blue Moon
09 Arabesque - Hey Catch On
10 Arabesque - Take Me Don’t Break Me
11 Arabesque - The Only Night Was A Lonely Night

Ccылки на скачивание:

Скрытый текст (вы должны зарегистрироваться или войти под своим логином):
У вас нет прав чтобы видеть скрытый текст, содержащейся здесь.


Arabesque - 1980-2

Arabesque ‎– Midnight Dancer - 1980-2 (Мирумир ‎– MIR 100723)




https://c.radikal.ru/c19/1805/7d/cc9a62de12ab.png

Треклист:

01 Arabesque - Make Love Whenever You Can
02 Arabesque - Keep The Wolf From The Door
03 Arabesque - I Don`t Wanna Have Breakfast Wish You
04 Arabesque - Nights In The Harbour
05 Arabesque - Hey What A Magic Night
06 Arabesque - Midnight Dancer
07 Arabesque - Hi Hi Highway
08 Arabesque - You Win, Hands Down
09 Arabesque - Blackout
10 Arabesque - Born To Reggae

Ccылки на скачивание:

Скрытый текст (вы должны зарегистрироваться или войти под своим логином):
У вас нет прав чтобы видеть скрытый текст, содержащейся здесь.


Arabesque - 1981

Arabesque ‎– Billy’s Barbeque - 1981 (Мирумир ‎– MIR100724)


https://a.radikal.ru/a16/1805/6a/25b320284406.png

Треклист:

Ccылки на скачивание:

Скрытый текст (вы должны зарегистрироваться или войти под своим логином):
У вас нет прав чтобы видеть скрытый текст, содержащейся здесь.


Arabesque - 1982-1

Arabesque ‎– Caballero - 1982-1 (Мирумир ‎– MIR100725)


https://a.radikal.ru/a31/1805/dc/58786aa557a9.png

Треклист:

Ccылки на скачивание:

Скрытый текст (вы должны зарегистрироваться или войти под своим логином):
У вас нет прав чтобы видеть скрытый текст, содержащейся здесь.


Arabesque - 1982-2

Arabesque ‎– Why No Reply - 1982-2 (Мирумир ‎– MIR100726)


https://a.radikal.ru/a13/1805/fa/cdb9d0928275.png

Треклист:

Ccылки на скачивание:

Скрытый текст (вы должны зарегистрироваться или войти под своим логином):
У вас нет прав чтобы видеть скрытый текст, содержащейся здесь.


Arabesque - 1983

Arabesque ‎– Loser Pays The Piper - 1983 (Мирумир ‎– MIR100727)


https://d.radikal.ru/d13/1805/7f/c81c255f3ac9.png

Треклист:

Ccылки на скачивание:


Скрытый текст (вы должны зарегистрироваться или войти под своим логином):
У вас нет прав чтобы видеть скрытый текст, содержащейся здесь.


Arabesque - 1984

Arabesque ‎– Time To Say Good Bye - 1984 (Мирумир ‎– MIR100728)


https://a.radikal.ru/a30/1805/60/7b33ce2bff39.png

Треклист:

Ccылки на скачивание:

Скрытый текст (вы должны зарегистрироваться или войти под своим логином):
У вас нет прав чтобы видеть скрытый текст, содержащейся здесь.

cthutq_1956 02.05.2018 17:40

Слов нет, восторг ,послушаем :)

ната44 03.05.2018 06:15

Вячеслав, спасибо за Arabesque!

cthutq_1956 03.05.2018 06:22

Большое спасибо Вячеславу и Дмитрию за труды великие ,ознакомился понравилось :icon_friends:

bobrovich 03.05.2018 14:12

В этой раздаче каналы правильно записаны !

Крепыш 03.05.2018 16:11

Огромное Спасибо !!!

Дмитрий 03.05.2018 20:23

Код:

REM GENRE "Disco"
REM DATE 2014
REM COMMENT "Оцифровка - Бобрович"
TITLE "Friday Night (Deluxe Edition)"
PERFORMER "Arabesque"
FILE "78.wav" WAVE
  TRACK 01 AUDIO
TITLE "Hello Mr. Monkey"
PERFORMER "Arabesque"
    INDEX 01 00:00:00
  TRACK 02 AUDIO
TITLE "Fly High, Little Butterfly"
PERFORMER "Arabesque"
    INDEX 01 03:31:35
  TRACK 03 AUDIO
TITLE "Someone Is Waiting For You"
PERFORMER "Arabesque"
    INDEX 01 06:53:73
  TRACK 04 AUDIO
TITLE "The Man With The Gun"
PERFORMER "Arabesque"
    INDEX 01 11:01:65
  TRACK 05 AUDIO
TITLE "Six Times A Day"
PERFORMER "Arabesque"
    INDEX 01 13:58:60
  TRACK 06 AUDIO
TITLE "Buggy Boy"
PERFORMER "Arabesque"
    INDEX 01 17:12:55
  TRACK 07 AUDIO
TITLE "Friday Night"
PERFORMER "Arabesque"
    INDEX 01 20:09:12
  TRACK 08 AUDIO
TITLE "Catch Me Tiger"
PERFORMER "Arabesque"
    INDEX 01 24:29:57
  TRACK 09 AUDIO
TITLE "Give It Up"
PERFORMER "Arabesque"
    INDEX 01 29:21:62
  TRACK 10 AUDIO
TITLE "Love Is Just A Game"
PERFORMER "Arabesque"
    INDEX 01 33:20:09

Код:

REM GENRE "Disco"
REM DATE 2015
REM COMMENT "Оцифровка - Бобрович"
TITLE "City Cats"
PERFORMER "Arabesque"
FILE "Arabesque ‎– City Cats - 1979 (Мирумир ‎– MIR 100721).wav" WAVE
  TRACK 01 AUDIO
TITLE "City Cats"
PERFORMER "Arabesque"
    INDEX 01 00:00:00
  TRACK 02 AUDIO
TITLE "Peppermint Jack"
PERFORMER "Arabesque"
    INDEX 01 03:04:17
  TRACK 03 AUDIO
TITLE "Rock Me After Midnight"
PERFORMER "Arabesque"
    INDEX 01 06:12:15
  TRACK 04 AUDIO
TITLE "Dancin' In The Fire Of Love"
PERFORMER "Arabesque"
    INDEX 01 10:02:14
  TRACK 05 AUDIO
TITLE "Helldriver"
PERFORMER "Arabesque"
    INDEX 01 13:31:23
  TRACK 06 AUDIO
TITLE "Don't Kiss A Crocodile"
PERFORMER "Arabesque"
    INDEX 01 18:27:05
  TRACK 07 AUDIO
TITLE "Lucifers Lover"
PERFORMER "Arabesque"
    INDEX 01 22:02:73
  TRACK 08 AUDIO
TITLE "Plastic Heart"
PERFORMER "Arabesque"
    INDEX 01 25:34:42
  TRACK 09 AUDIO
TITLE "In The Heat Of The Disco Night"
PERFORMER "Arabesque"
    INDEX 01 29:36:20
  TRACK 10 AUDIO
TITLE "It's So Hard To Leave You"
PERFORMER "Arabesque"
    INDEX 01 32:53:20

Код:

REM GENRE "Disco"
REM DATE 2015
REM COMMENT "Оцифровка - Бобрович"
TITLE "Marigot Bay (Deluxe Edition)"
PERFORMER "Arabesque"
FILE "Arabesque ‎– Marigot Bay - 1980 (Мирумир ‎– MIR 100722).wav" WAVE
  TRACK 01 AUDIO
TITLE "High Life"
PERFORMER "Arabesque"
    INDEX 01 00:00:00
  TRACK 02 AUDIO
TITLE "Jingle Jangle Joe"
PERFORMER "Arabesque"
    INDEX 01 03:12:07
  TRACK 03 AUDIO
TITLE "Roller Star"
PERFORMER "Arabesque"
    INDEX 01 06:26:11
  TRACK 04 AUDIO
TITLE "Marigot Bay (Deluxe Edition)"
PERFORMER "Arabesque"
    INDEX 01 10:08:65
  TRACK 05 AUDIO
TITLE "Marigot Bay"
PERFORMER "Arabesque"
    INDEX 01 13:40:11
  TRACK 06 AUDIO
TITLE "Rock ‘n’ Roll Fan (Exclusive Bonus Track)"
PERFORMER "Arabesque"
    INDEX 01 17:33:66
  TRACK 07 AUDIO
TITLE "Parties In The Penthouse"
PERFORMER "Arabesque"
    INDEX 01 20:58:43
  TRACK 08 AUDIO
TITLE "Once In A Blue Moon"
PERFORMER "Arabesque"
    INDEX 01 24:19:57
  TRACK 09 AUDIO
TITLE "Hey Catch On"
PERFORMER "Arabesque"
    INDEX 01 27:42:32
  TRACK 10 AUDIO
TITLE "Take Me Don’t Break Me"
PERFORMER "Arabesque"
    INDEX 01 31:07:04
  TRACK 11 AUDIO
TITLE "The Only Night Was A Lonely Night"
PERFORMER "Arabesque"
    INDEX 01 34:28:19

Код:

REM GENRE "Disco"
REM DATE 2014
REM COMMENT "Оцифровка - Бобрович"
TITLE "Midnight Dancer (Deluxe Edition)"
PERFORMER "Arabesque"
FILE "Arabesque ‎– Midnight Dancer - 1980-2 (Мирумир ‎– MIR 100723).wav" WAVE
  TRACK 01 AUDIO
TITLE "Make Love Whenever You Can"
PERFORMER "Arabesque"
    INDEX 01 00:00:00
  TRACK 02 AUDIO
TITLE "Keep The Wolf From The Door"
PERFORMER "Arabesque"
    INDEX 01 03:47:54
  TRACK 03 AUDIO
TITLE "I Don`t Wanna Have Breakfast Wish You"
PERFORMER "Arabesque"
    INDEX 01 08:06:17
  TRACK 04 AUDIO
TITLE "Nights In The Harbour"
PERFORMER "Arabesque"
    INDEX 01 11:54:31
  TRACK 05 AUDIO
TITLE "Hey What A Magic Night"
PERFORMER "Arabesque"
    INDEX 01 16:26:34
  TRACK 06 AUDIO
TITLE "Midnight Dancer"
PERFORMER "Arabesque"
    INDEX 01 19:40:16
  TRACK 07 AUDIO
TITLE "Hi Hi Highway"
PERFORMER "Arabesque"
    INDEX 01 23:25:03
  TRACK 08 AUDIO
TITLE "You Win, Hands Down"
PERFORMER "Arabesque"
    INDEX 01 27:28:05
  TRACK 09 AUDIO
TITLE "Blackout"
PERFORMER "Arabesque"
    INDEX 01 30:23:35
  TRACK 10 AUDIO
TITLE "Born To Reggae"
PERFORMER "Arabesque"
    INDEX 01 33:49:35


RostiC 04.05.2018 16:02

Приятный звук, спасибо!

RostiC 04.05.2018 19:00

Для 1981 г. CUE (сам файл wave переименован):
REM GENRE "Disco"
REM DATE 1981
REM COMMENT "Оцифровка - Бобрович"
TITLE "Billy’s Barbeque"
PERFORMER "Arabesque"
FILE "1981.wave" WAVE
TRACK 01 AUDIO
TITLE "In For A Penny, In For A Pound"
PERFORMER "Arabesque"
INDEX 01 00:00:00
TRACK 02 AUDIO
TITLE "The Hero of My Life"
PERFORMER "Arabesque"
INDEX 01 03:00:00
TRACK 03 AUDIO
TITLE "Like A Shot In The Dark"
PERFORMER "Arabesque"
INDEX 01 06:46:00
TRACK 04 AUDIO
TITLE "Run The Show"
PERFORMER "Arabesque"
INDEX 01 10:30:00
TRACK 05 AUDIO
TITLE "Indio Boy"
PERFORMER "Arabesque"
INDEX 01 13:46:30
TRACK 06 AUDIO
TITLE "Billy's Barbeque"
PERFORMER "Arabesque"
INDEX 01 17:53:00
TRACK 07 AUDIO
TITLE "The Doctor Likes Music"
PERFORMER "Arabesque"
INDEX 01 20:42:00
TRACK 08 AUDIO
TITLE "The Rebels of The Bounty"
PERFORMER "Arabesque"
INDEX 01 23:39:30
TRACK 09 AUDIO
TITLE "Let's Make A Night of it"
PERFORMER "Arabesque"
INDEX 01 27:38:50
TRACK 10 AUDIO
TITLE "I Stand By You"
PERFORMER "Arabesque"
INDEX 01 31:09:00

ТОМ 13.01.2020 20:25

Слава! Добрался, наконец, до твоих Арабесок... Пока это - лучший их звук, который я слышал... Через день-два докачаю, и сравню с твоими же японцами в лоб...


Часовой пояс GMT, время: 22:52.

Powered by vBulletin® Version 3.8.2
Copyright ©2000 - 2020, Jelsoft Enterprises Ltd. Перевод: zCarot