Показать сообщение отдельно
Старый 14.11.2017, 12:07   #3
Дмитрий
Music Group
 
Аватар для Дмитрий
 

Регистрация: 12.12.2008
Адрес: Москва прошлого тысячелетия.
Сообщений: 150,032
Сказал(а) спасибо: 33,152
Поблагодарили 166,730 раз(а) в 60,867 сообщениях
Дмитрий репутация неоспоримаДмитрий репутация неоспоримаДмитрий репутация неоспоримаДмитрий репутация неоспоримаДмитрий репутация неоспоримаДмитрий репутация неоспоримаДмитрий репутация неоспоримаДмитрий репутация неоспоримаДмитрий репутация неоспоримаДмитрий репутация неоспоримаДмитрий репутация неоспорима
По умолчанию

196х - концерт
Треклист
01 - 3:16 - Про разные страны (А может быть будут...) (сл. А. Аронова)
02 - 3:02 - Они студентами были... (сл. А. Иванова, пародия на Э. Асадова)
03 - 3:42 - Прощай, позабудь... (сл. И. Бродского)
04 - 1:52 - Хозяйка горы (Распахнуты скалы...) (сл. Т. Сарыщевой)
05 - 2:50 - Полярные цветы (Летели гуси за Усть-Омчуг...) (сл. А. Жигулина)
06 - 3:08 - Корень зла (сл. Л. Мартынова)
07 - 1:51 - Наш идеал (Уверенно близится Новый Год...) (сл. В. Лейкина)
08 - 2:11 - Эй, художник, выше знамя! (обрывается)
09 - 3:16 - Тихонько дремлет сад заброшенный...
10 - 2:47 - Ветер (Будто впрямь по чью-то душу...) (сл. Л. Мартынова)
11 - 2:28 - Олива (сл. Л. Мартынова)
12 - 2:01 - Костёр (Чего только не копится в карманах пиджака...) (сл. Л. Мартынова)
13 - 2:46 - Воинственная рыцарская песня (Мне миром сердце не разжечь...) (сл. Л. Фейхтвангера)
14 - 3:12 - Миролюбивая песня скифов (Мильоны вас...) (сл. А. Блока)
15 - 3:53 - Девушка пела в церковном хоре... (сл. А. Блока)
концерт.cue

REM GENRE "Авторская песня"
PERFORMER "Александр Дулов"
TITLE "Концерт из коллекции Михаила Баранова"
FILE "концерт.mp3" MP3
TRACK 01 AUDIO
TITLE "Про разные страны (А может быть будут...) (сл. А. Аронова)"
PERFORMER "Александр Дулов"
INDEX 01 00:00:00
TRACK 02 AUDIO
TITLE "Они студентами были... (сл. А. Иванова, пародия на Э. Асадова)"
PERFORMER "Александр Дулов"
INDEX 01 03:16:00
TRACK 03 AUDIO
TITLE "Прощай, позабудь... (сл. И. Бродского)"
PERFORMER "Александр Дулов"
INDEX 01 06:17:45
TRACK 04 AUDIO
TITLE "Хозяйка горы (Распахнуты скалы...) (сл. Т. Сарыщевой)"
PERFORMER "Александр Дулов"
INDEX 01 10:00:00
TRACK 05 AUDIO
TITLE "Полярные цветы (Летели гуси за Усть-Омчуг...) (сл. А. Жигулина)"
PERFORMER "Александр Дулов"
INDEX 01 11:52:25
TRACK 06 AUDIO
TITLE "Корень зла (сл. Л. Мартынова)"
PERFORMER "Александр Дулов"
INDEX 01 14:42:50
TRACK 07 AUDIO
TITLE "Наш идеал (Уверенно близится Новый Год...) (сл. В. Лейкина)"
PERFORMER "Александр Дулов"
INDEX 01 17:50:25
TRACK 08 AUDIO
TITLE "Эй, художник, выше знамя! (обрывается)"
PERFORMER "Александр Дулов"
INDEX 01 19:41:15
TRACK 09 AUDIO
TITLE "Тихонько дремлет сад заброшенный..."
PERFORMER "Александр Дулов"
INDEX 01 21:52:50
TRACK 10 AUDIO
TITLE "Ветер (Будто впрямь по чью-то душу...) (сл. Л. Мартынова)"
PERFORMER "Александр Дулов"
INDEX 01 25:09:00
TRACK 11 AUDIO
TITLE "Олива (сл. Л. Мартынова)"
PERFORMER "Александр Дулов"
INDEX 01 27:55:50
TRACK 12 AUDIO
TITLE "Костёр (Чего только не копится в карманах пиджака...) (сл. Л. Мартынова)"
PERFORMER "Александр Дулов"
INDEX 01 30:23:50
TRACK 13 AUDIO
TITLE "Воинственная рыцарская песня (Мне миром сердце не разжечь...) (сл. Л. Фейхтвангера)"
PERFORMER "Александр Дулов"
INDEX 01 32:24:40
TRACK 14 AUDIO
TITLE "Миролюбивая песня скифов (Мильоны вас...) (сл. А. Блока)"
PERFORMER "Александр Дулов"
INDEX 01 35:10:60
TRACK 15 AUDIO
TITLE "Девушка пела в церковном хоре... (сл. А. Блока)"
PERFORMER "Александр Дулов"
INDEX 01 38:22:30

197х - сборка (из фонотеки М.Баранова)
Треклист (1 сторона)
01 - 1:39 - Посёлок дачный (сл. Л. Друскина)
02 - 2:38 - Нет, не к морю... (сл. И. Харабарова)
03 - 3:19 - Павлово-Посад (Надоело жить мне как в засаде...) (сл. А. Богучарова)
04 - 2:45 - Вертушинка (Над тобой не одна осинка...) (сл. А. Яшина)
05 - 1:51 - Хозяйка горы (Распахнуты скалы...) (сл. Т. Сарыщевой)
06 - 2:44 - Публика (сл. Е. Евтушенко)
07 - 3:09 - Корень зла (сл. Л. Мартынова)
08 - 1:43 - Предновогодний тост ответственного работника (Уверенно близится Новый Год...) (сл. В. Лейкина)
09 - 2:17 - Хромой король - Le roi boiteux (на франц. языке) (сл. М. Карема)
10 - 1:22 - Шесть батонов (сл. Р. Сефа)
11 - 3:08 - Прощай, позабудь... (сл. И. Бродского)
12 - 3:17 - Баллада о неандертальском Прометее (Ну, какой ты неандерталец...) (сл. О. Тарутина)
13 - 1:30 - Лучшие дни (сл. Н. Злотникова)
14 - 2:23 - Старый мёд, хмельное пиво... (сл. М. Черкасовой)
15 - 2:57 - Ритмы Рима (Забыли нас, любимый мой...) (сл. Е. Евтушенко)
16 - 2:36 - Песня о тройке (Дай явь, как сон...) (сл. М. Румянцевой)
17 - 2:11 - Мальчик в свитере белом (сл. Н. Яворской)
01.cue

REM GENRE "Авторская песня"
PERFORMER "Александр Дулов"
TITLE "Запись из личной фонотеки Михаила Баранова (1 сторона)"
FILE "01.mp3" MP3
TRACK 01 AUDIO
TITLE "Посёлок дачный (сл. Л. Друскина)"
PERFORMER "Александр Дулов"
INDEX 01 00:00:00
TRACK 02 AUDIO
TITLE "Нет, не к морю... (сл. И. Харабарова)"
PERFORMER "Александр Дулов"
INDEX 01 01:39:00
TRACK 03 AUDIO
TITLE "Павлово-Посад (Надоело жить мне как в засаде...) (сл. А. Богучарова)"
PERFORMER "Александр Дулов"
INDEX 01 04:17:25
TRACK 04 AUDIO
TITLE "Вертушинка (Над тобой не одна осинка...) (сл. А. Яшина)"
PERFORMER "Александр Дулов"
INDEX 01 07:36:00
TRACK 05 AUDIO
TITLE "Хозяйка горы (Распахнуты скалы...) (сл. Т. Сарыщевой)"
PERFORMER "Александр Дулов"
INDEX 01 10:20:45
TRACK 06 AUDIO
TITLE "Публика (сл. Е. Евтушенко)"
PERFORMER "Александр Дулов"
INDEX 01 12:12:00
TRACK 07 AUDIO
TITLE "Корень зла (сл. Л. Мартынова)"
PERFORMER "Александр Дулов"
INDEX 01 14:56:25
TRACK 08 AUDIO
TITLE "Предновогодний тост ответственного работника (Уверенно близится Новый Год...) (сл. В. Лейкина)"
PERFORMER "Александр Дулов"
INDEX 01 18:05:50
TRACK 09 AUDIO
TITLE "Хромой король - Le roi boiteux (на франц. языке) (сл. М. Карема)"
PERFORMER "Александр Дулов"
INDEX 01 19:48:25
TRACK 10 AUDIO
TITLE "Шесть батонов (сл. Р. Сефа)"
PERFORMER "Александр Дулов"
INDEX 01 22:05:30
TRACK 11 AUDIO
TITLE "Прощай, позабудь... (сл. И. Бродского)"
PERFORMER "Александр Дулов"
INDEX 01 23:27:30
TRACK 12 AUDIO
TITLE "Баллада о неандертальском Прометее (Ну, какой ты неандерталец...) (сл. О. Тарутина)"
PERFORMER "Александр Дулов"
INDEX 01 26:35:30
TRACK 13 AUDIO
TITLE "Лучшие дни (сл. Н. Злотникова)"
PERFORMER "Александр Дулов"
INDEX 01 29:52:25
TRACK 14 AUDIO
TITLE "Старый мёд, хмельное пиво... (сл. М. Черкасовой)"
PERFORMER "Александр Дулов"
INDEX 01 31:22:45
TRACK 15 AUDIO
TITLE "Ритмы Рима (Забыли нас, любимый мой...) (сл. Е. Евтушенко)"
PERFORMER "Александр Дулов"
INDEX 01 33:45:15
TRACK 16 AUDIO
TITLE "Песня о тройке (Дай явь, как сон...) (сл. М. Румянцевой)"
PERFORMER "Александр Дулов"
INDEX 01 36:42:25
TRACK 17 AUDIO
TITLE "Мальчик в свитере белом (сл. Н. Яворской)"
PERFORMER "Александр Дулов"
INDEX 01 39:18:45

Треклист (2 сторона)
01 - 2:48 - Черёмуха белая (сл. И. Рудневой)
02 - 3:05 - Бык (Здесь пустынны длинные дороги...) (сл. А. Книппер)
03 - 2:37 - Берег прекрасной лени (сл. А. Книппер)
04 - 1:48 - До Ашукинской платформы (сл. Н. Королёвой)
05 - 2:21 - Клопы (Друзей немного в нашем мире...)
06 - 1:56 - Фокусник (сл. А. Кушнера) (не полностью)
07 - 3:19 - Три сосны (Стою, стою, роняя руки...) (сл. В. Павлинова)
08 - 2:04 - Кузнечик (Динь-диринь...) (сл. В. Сосноры)
09 - 2:56 - Да, я знаю, я вам не пара... (сл. Н. Гумилёва)
10 - 2:17 - Вчера ещё в глаза глядел... (сл. М. Цветаевой)
11 - 2:16 - Не жалею, не зову, не плачу... (сл. С. Есенина)
12 - 2:14 - Клюква (сл. Д. Сухарева)
13 - 2:04 - Морозным огнём опалённы... (сл. С. Юфита)
14 - 1:15 - Как крик души... (сл. С. Юфита)
15 - 1:05 - Ноченька, ой зимняя...
16 - 1:38 - Ой-ёй-ёй, а я несчастная девчоночка... (обрывается)
17 - 2:18 - Эй, художник, выше знамя!
18 - 1:54 - Скифы (Мильоны вас...) (сл. А. Блока)
19 - 2:11 - Ну, пожалуйста... (сл. В. Тушновой)
02.cue

REM GENRE "Авторская песня"
PERFORMER "Александр Дулов"
TITLE "Запись из личной фонотеки Михаила Баранова (2 сторона)"
FILE "02.mp3" MP3
TRACK 01 AUDIO
TITLE "Черёмуха белая (сл. И. Рудневой)"
PERFORMER "Александр Дулов"
INDEX 01 00:04:50
TRACK 02 AUDIO
TITLE "Бык (Здесь пустынны длинные дороги...) (сл. А. Книппер)"
PERFORMER "Александр Дулов"
INDEX 01 02:52:25
TRACK 03 AUDIO
TITLE "Берег прекрасной лени (сл. А. Книппер)"
PERFORMER "Александр Дулов"
INDEX 01 05:57:30
TRACK 04 AUDIO
TITLE "До Ашукинской платформы (сл. Н. Королёвой)"
PERFORMER "Александр Дулов"
INDEX 01 08:34:15
TRACK 05 AUDIO
TITLE "Клопы (Друзей немного в нашем мире...)"
PERFORMER "Александр Дулов"
INDEX 01 10:22:00
TRACK 06 AUDIO
TITLE "Фокусник (сл. А. Кушнера) (не полностью)"
PERFORMER "Александр Дулов"
INDEX 01 12:43:25
TRACK 07 AUDIO
TITLE "Три сосны (Стою, стою, роняя руки...) (сл. В. Павлинова)"
PERFORMER "Александр Дулов"
INDEX 01 14:39:15
TRACK 08 AUDIO
TITLE "Кузнечик (Динь-диринь...) (сл. В. Сосноры)"
PERFORMER "Александр Дулов"
INDEX 01 17:58:15
TRACK 09 AUDIO
TITLE "Да, я знаю, я вам не пара... (сл. Н. Гумилёва)"
PERFORMER "Александр Дулов"
INDEX 01 20:01:65
TRACK 10 AUDIO
TITLE "Вчера ещё в глаза глядел... (сл. М. Цветаевой)"
PERFORMER "Александр Дулов"
INDEX 01 22:58:00
TRACK 11 AUDIO
TITLE "Не жалею, не зову, не плачу... (сл. С. Есенина)"
PERFORMER "Александр Дулов"
INDEX 01 25:15:15
TRACK 12 AUDIO
TITLE "Клюква (сл. Д. Сухарева)"
PERFORMER "Александр Дулов"
INDEX 01 27:31:15
TRACK 13 AUDIO
TITLE "Морозным огнём опалённы... (сл. С. Юфита)"
PERFORMER "Александр Дулов"
INDEX 01 29:45:00
TRACK 14 AUDIO
TITLE "Как крик души... (сл. С. Юфита)"
PERFORMER "Александр Дулов"
INDEX 01 31:48:50
TRACK 15 AUDIO
TITLE "Ноченька, ой зимняя..."
PERFORMER "Александр Дулов"
INDEX 01 33:03:60
TRACK 16 AUDIO
TITLE "Ой-ёй-ёй, а я несчастная девчоночка... (обрывается)"
PERFORMER "Александр Дулов"
INDEX 01 34:09:10
TRACK 17 AUDIO
TITLE "Эй, художник, выше знамя!"
PERFORMER "Александр Дулов"
INDEX 01 35:47:25
TRACK 18 AUDIO
TITLE "Скифы (Мильоны вас...) (сл. А. Блока)"
PERFORMER "Александр Дулов"
INDEX 01 38:05:45
TRACK 19 AUDIO
TITLE "Ну, пожалуйста... (сл. В. Тушновой)"
PERFORMER "Александр Дулов"
INDEX 01 39:59:10

update:
198х - начало 80-х - домашняя запись
Треклист
01 - 1:00 - Я пил из черепа отца... (сл. Ю. Кузнецова)
02 - 2:19 - Скажи мне, о русская даль... (сл. Ю. Кузнецова)
03 - 1:25 - Отцепленный вагон (Усыпил нас большой перегон...) (сл. Ю. Кузнецова)
04 - 2:40 - Поманила молодость и скрылась... (сл. Ю. Кузнецова)
05 - 1:14 - Вчера я ходил по земле... (сл. Ю. Кузнецова)
06 - 1:59 - Рабочий (Он стоит пред раскалённым горном...) (сл. Н. Гумилёва)
07 - 2:59 - Пробуждение весны (Вчера мой кот взглянул на календарь...) (сл. С. Чёрного)
08 - 2:33 - Заброшу я постылое жилище... (сл. В. Коротаева)
09 - 1:57 - Ах, скорый поезд, скорый поезд... (сл. В. Коротаева)
10 - 2:22 - Знак правды (Я к правде шёл в глубоком мраке...) (сл. Н. Морозова)
11 - 3:41 - В минуты музыки печальной... (сл. Н. Рубцова)
12 - 2:29 - Поезд мчался с грохотом и воем... (сл. Н. Рубцова)
13 - 1:33 - Песня ужаса (До чего ж луната ночь...) (сл. И. Могилы)
14 - 1:29 - Судак (сл. Р. Сефа) (дуэт)
15 - 1:18 - Орангутанг (дуэт)
16 - 2:27 - Нанаун (Над Аттерноном падает закат...) (сл. В. Шенталинского)
17 - 1:40 - Душевная погода (сл. В. Попова)
18 - 1:33 - Присяду на крыльцо перед дорогой дальней... (сл. В. Попова)
19 - 2:11 - Злыдни (Засыпают боги, слава богу...) (сл. В. Попова)
20 - 1:47 - Я слышу каждый шаг... (сл. Э. Портнягина)
01.cue

REM GENRE "Авторская песня"
PERFORMER "Александр Дулов"
TITLE "Домашняя запись начала 80-х годов"
FILE "01.mp3" MP3
TRACK 01 AUDIO
TITLE "Я пил из черепа отца... (сл. Ю. Кузнецова)"
PERFORMER "Александр Дулов"
INDEX 01 00:00:00
TRACK 02 AUDIO
TITLE "Скажи мне, о русская даль... (сл. Ю. Кузнецова)"
PERFORMER "Александр Дулов"
INDEX 01 01:00:25
TRACK 03 AUDIO
TITLE "Отцепленный вагон (Усыпил нас большой перегон...) (сл. Ю. Кузнецова)"
PERFORMER "Александр Дулов"
INDEX 01 03:19:50
TRACK 04 AUDIO
TITLE "Поманила молодость и скрылась... (сл. Ю. Кузнецова)"
PERFORMER "Александр Дулов"
INDEX 01 04:44:45
TRACK 05 AUDIO
TITLE "Вчера я ходил по земле... (сл. Ю. Кузнецова)"
PERFORMER "Александр Дулов"
INDEX 01 07:24:15
TRACK 06 AUDIO
TITLE "Рабочий (Он стоит пред раскалённым горном...) (сл. Н. Гумилёва)"
PERFORMER "Александр Дулов"
INDEX 01 08:38:00
TRACK 07 AUDIO
TITLE "Пробуждение весны (Вчера мой кот взглянул на календарь...) (сл. С. Чёрного)"
PERFORMER "Александр Дулов"
INDEX 01 10:37:25
TRACK 08 AUDIO
TITLE "Заброшу я постылое жилище... (сл. В. Коротаева)"
PERFORMER "Александр Дулов"
INDEX 01 13:36:45
TRACK 09 AUDIO
TITLE "Ах, скорый поезд, скорый поезд... (сл. В. Коротаева)"
PERFORMER "Александр Дулов"
INDEX 01 16:09:50
TRACK 10 AUDIO
TITLE "Знак правды (Я к правде шёл в глубоком мраке...) (сл. Н. Морозова)"
PERFORMER "Александр Дулов"
INDEX 01 18:07:00
TRACK 11 AUDIO
TITLE "В минуты музыки печальной... (сл. Н. Рубцова)"
PERFORMER "Александр Дулов"
INDEX 01 20:28:45
TRACK 12 AUDIO
TITLE "Поезд мчался с грохотом и воем... (сл. Н. Рубцова)"
PERFORMER "Александр Дулов"
INDEX 01 24:09:25
TRACK 13 AUDIO
TITLE "Песня ужаса (До чего ж луната ночь...) (сл. И. Могилы)"
PERFORMER "Александр Дулов"
INDEX 01 26:38:45
TRACK 14 AUDIO
TITLE "Судак (сл. Р. Сефа) (дуэт)"
PERFORMER "Александр Дулов"
INDEX 01 28:12:00
TRACK 15 AUDIO
TITLE "Орангутанг (дуэт)"
PERFORMER "Александр Дулов"
INDEX 01 29:41:15
TRACK 16 AUDIO
TITLE "Нанаун (Над Аттерноном падает закат...) (сл. В. Шенталинского)"
PERFORMER "Александр Дулов"
INDEX 01 30:58:60
TRACK 17 AUDIO
TITLE "Душевная погода (сл. В. Попова)"
PERFORMER "Александр Дулов"
INDEX 01 33:26:15
TRACK 18 AUDIO
TITLE "Присяду на крыльцо перед дорогой дальней... (сл. В. Попова)"
PERFORMER "Александр Дулов"
INDEX 01 35:06:05
TRACK 19 AUDIO
TITLE "Злыдни (Засыпают боги, слава богу...) (сл. В. Попова)"
PERFORMER "Александр Дулов"
INDEX 01 36:38:65
TRACK 20 AUDIO
TITLE "Я слышу каждый шаг... (сл. Э. Портнягина)"
PERFORMER "Александр Дулов"
INDEX 01 38:49:40

1976-12-01 - концерт в ДК 'Правда'
Треклист
01 - 3:36 - Античная ваза (сл. А. Кушнера)
02 - 2:47 - Корень зла (сл. Л. Мартынова) (обрывается)
03 - 3:03 - Корень зла (сл. Л. Мартынова)
04 - 3:41 - Севилья (из поэмы Е. Евтушенко 'Коррида')
05 - 1:36 - Бык (из поэмы Е. Евтушенко 'Коррида')
06 - 1:55 - Лошадь пикадора (из поэмы Е. Евтушенко 'Коррида')
07 - 2:14 - Публика (из поэмы Е. Евтушенко 'Коррида')
08 - 2:44 - Тореро (из поэмы Е. Евтушенко 'Коррида')
09 - 2:34 - Хромой король - Le roi boiteux (на франц. языке) (сл. М. Карема)
10 - 3:34 - Баллада о неандертальском Прометее (Ну, какой ты неандерталец...) (сл. О. Тарутина)
11 - 4:52 - Грустные мысли (сл. Н. Рубцова)
Александр Дулов.cue

REM GENRE "Авторская песня"
REM DATE 1976
PERFORMER "Александр Дулов"
TITLE "Концерт в ДК 'Правда', 01.12.1976"
FILE "04 Александр Дулов.mp3" MP3
TRACK 01 AUDIO
TITLE "Античная ваза (сл. А. Кушнера)"
PERFORMER "Александр Дулов"
INDEX 01 00:00:00
TRACK 02 AUDIO
TITLE "Корень зла (сл. Л. Мартынова) (обрывается)"
PERFORMER "Александр Дулов"
INDEX 01 03:35:52
FILE "05 Александр Дулов.mp3" MP3
TRACK 03 AUDIO
TITLE "Корень зла (сл. Л. Мартынова)"
PERFORMER "Александр Дулов"
INDEX 01 00:00:00
TRACK 04 AUDIO
TITLE "Севилья (из поэмы Е. Евтушенко 'Коррида')"
PERFORMER "Александр Дулов"
INDEX 01 03:03:30
TRACK 05 AUDIO
TITLE "Бык (из поэмы Е. Евтушенко 'Коррида')"
PERFORMER "Александр Дулов"
INDEX 01 06:44:00
TRACK 06 AUDIO
TITLE "Лошадь пикадора (из поэмы Е. Евтушенко 'Коррида')"
PERFORMER "Александр Дулов"
INDEX 01 08:20:25
TRACK 07 AUDIO
TITLE "Публика (из поэмы Е. Евтушенко 'Коррида')"
PERFORMER "Александр Дулов"
INDEX 01 10:15:20
TRACK 08 AUDIO
TITLE "Тореро (из поэмы Е. Евтушенко 'Коррида')"
PERFORMER "Александр Дулов"
INDEX 01 12:29:05
TRACK 09 AUDIO
TITLE "Хромой король - Le roi boiteux (на франц. языке) (сл. М. Карема)"
PERFORMER "Александр Дулов"
INDEX 01 15:13:00
TRACK 10 AUDIO
TITLE "Баллада о неандертальском Прометее (Ну, какой ты неандерталец...) (сл. О. Тарутина)"
PERFORMER "Александр Дулов"
INDEX 01 17:47:25
FILE "06 Александр Дулов.mp3" MP3
TRACK 11 AUDIO
TITLE "Грустные мысли (сл. Н. Рубцова)"
PERFORMER "Александр Дулов"
INDEX 01 00:00:00

1977 - запись на квартире Кошелева
Треклист
01 - 4:02 - Трёп
02 - 1:58 - Об исполнении песен в зале и в узком кругу
03 - 2:43 - Ещё не всё... (сл. Л. Миллер)
04 - 3:27 - Павлово-Посад (Надоело жить мне, как в засаде...) (сл. А. Богучарова)
05 - 2:31 - Скрипит посёлок дачный... (сл. Л. Друскина)
06 - 2:06 - Спроси, уезжая: 'Куда пойдёшь?' (сл. Н. Королёвой)
07 - 3:38 - Берсёз осенний (День ало-сиз...) (сл. И. Северянина)
08 - 5:07 - Девушка пела в церковном хоре... (сл. А. Блока)
09 - 1:55 - О песне 'Тихонько дремлет сад заброшенный...'
10 - 3:42 - Тихонько дремлет сад заброшенный...
11 - 2:07 - О песне 'Клопы'
12 - 2:01 - О песне 'Клопы' (продолжение)
13 - 3:00 - Клопы (Друзей немного в нашем мире...)
14 - 1:58 - Народная милиция
15 - 3:37 - Эй, художник, выше знамя!
16 - 5:32 - Трёп
17 - 5:09 - Полярные цветы (Летели гуси за Усть-Омчуг...) (сл. А. Жигулина)
18 - 2:08 - О стихотворении 'Тюремный карцер' и Евгении Гинзбург
19 - 3:13 - Тюремный карцер (Всё по святым инквизиторским правилам...) (сл. Е. Гинзбург)
20 - 2:41 - Русский язык (Во дни сомнений, во дни тягостных раздумий...) (сл. И. Тургенева)
Александр Дулов.cue

REM GENRE "Авторская песня"
REM DATE 1977
PERFORMER "Александр Дулов"
TITLE "Запись в квартире Кошелева"
FILE "01.mp3" MP3
TRACK 01 AUDIO
TITLE "Трёп"
PERFORMER "Александр Дулов"
INDEX 01 00:00:00
TRACK 02 AUDIO
TITLE "Об исполнении песен в зале и в узком кругу"
PERFORMER "Александр Дулов"
INDEX 01 04:01:48
TRACK 03 AUDIO
TITLE "Ещё не всё... (сл. Л. Миллер)"
PERFORMER "Александр Дулов"
INDEX 01 05:59:45
TRACK 04 AUDIO
TITLE "Павлово-Посад (Надоело жить мне, как в засаде...) (сл. А. Богучарова)"
PERFORMER "Александр Дулов"
INDEX 01 08:43:00
TRACK 05 AUDIO
TITLE "Скрипит посёлок дачный... (сл. Л. Друскина)"
PERFORMER "Александр Дулов"
INDEX 01 12:10:15
TRACK 06 AUDIO
TITLE "Спроси, уезжая: 'Куда пойдёшь?' (сл. Н. Королёвой)"
PERFORMER "Александр Дулов"
INDEX 01 14:41:00
TRACK 07 AUDIO
TITLE "Берсёз осенний (День ало-сиз...) (сл. И. Северянина)"
PERFORMER "Александр Дулов"
INDEX 01 16:46:45
TRACK 08 AUDIO
TITLE "Девушка пела в церковном хоре... (сл. А. Блока)"
PERFORMER "Александр Дулов"
INDEX 01 20:25:00
TRACK 09 AUDIO
TITLE "О песне 'Тихонько дремлет сад заброшенный...'"
PERFORMER "Александр Дулов"
INDEX 01 25:32:15
TRACK 10 AUDIO
TITLE "Тихонько дремлет сад заброшенный..."
PERFORMER "Александр Дулов"
INDEX 01 27:27:00
TRACK 11 AUDIO
TITLE "О песне 'Клопы'"
PERFORMER "Александр Дулов"
INDEX 01 31:08:50
FILE "02.mp3" MP3
TRACK 12 AUDIO
TITLE "О песне 'Клопы' (продолжение)"
PERFORMER "Александр Дулов"
INDEX 01 00:00:00
TRACK 13 AUDIO
TITLE "Клопы (Друзей немного в нашем мире...)"
PERFORMER "Александр Дулов"
INDEX 01 02:00:60
TRACK 14 AUDIO
TITLE "Народная милиция"
PERFORMER "Александр Дулов"
INDEX 01 05:00:35
TRACK 15 AUDIO
TITLE "Эй, художник, выше знамя!"
PERFORMER "Александр Дулов"
INDEX 01 06:58:40
TRACK 16 AUDIO
TITLE "Трёп"
PERFORMER "Александр Дулов"
INDEX 01 10:36:00
TRACK 17 AUDIO
TITLE "Полярные цветы (Летели гуси за Усть-Омчуг...) (сл. А. Жигулина)"
PERFORMER "Александр Дулов"
INDEX 01 16:08:10
TRACK 18 AUDIO
TITLE "О стихотворении 'Тюремный карцер' и Евгении Гинзбург"
PERFORMER "Александр Дулов"
INDEX 01 21:17:00
TRACK 19 AUDIO
TITLE "Тюремный карцер (Всё по святым инквизиторским правилам...) (сл. Е. Гинзбург)"
PERFORMER "Александр Дулов"
INDEX 01 23:25:30
TRACK 20 AUDIO
TITLE "Русский язык (Во дни сомнений, во дни тягостных раздумий...) (сл. И. Тургенева)"
PERFORMER "Александр Дулов"
INDEX 01 26:38:00

update (2):
1977-10-14 - концерт в Теплопроекте
Треклист (часть 1)
01 - 4:39 - Вступительное слово М. Баранова и А. Дулова
02 - 3:01 - Дорога в дождь (сл. Е. Евтушенко)
03 - 2:07 - Кругом тайга (Сырая тяжесть сапога...) (сл. И. Жданова)
04 - 2:43 - Дымный чай (сл. И. Жданова)
05 - 2:54 - Кузнечик (Ночь над гаванью стеклянной...) (сл. В. Сосноры)
06 - 3:38 - Античная ваза (сл. А. Кушнера)
07 - 3:11 - Корень зла (сл. Л. Мартынова)
08 - 3:32 - Севилья (из поэмы Е. Евтушенко 'Коррида')
09 - 1:39 - Бык (из поэмы Е. Евтушенко 'Коррида')
10 - 1:57 - Лошадь пикадора (из поэмы Е. Евтушенко 'Коррида')
11 - 2:14 - Публика (из поэмы Е. Евтушенко 'Коррида')
12 - 2:25 - Тореро (из поэмы Е. Евтушенко 'Коррида')
13 - 3:49 - Ну, пожалуйста... (сл. В. Тушновой)
14 - 2:06 - Наш разговор (сл. М. Черкасовой)
15 - 3:26 - Волчонок (Прикидываюсь, прикидываюсь...) (сл. Н. Королёвой в обр. А. Дулова)
16 - 3:15 - Мальчик в свитере белом (сл. Н. Яворской) (обрывается)
Часть 1.cue

REM GENRE "Авторская песня"
REM DATE 1977
PERFORMER "Александр Дулов"
TITLE "Концерт в Теплопроекте, 14.10.1977 (часть 1)"
FILE "01.mp3" MP3
TRACK 01 AUDIO
TITLE "Вступительное слово М. Баранова и А. Дулова"
PERFORMER "Александр Дулов"
INDEX 01 00:00:00
TRACK 02 AUDIO
TITLE "Дорога в дождь (сл. Е. Евтушенко)"
PERFORMER "Александр Дулов"
INDEX 01 04:39:30
TRACK 03 AUDIO
TITLE "Кругом тайга (Сырая тяжесть сапога...) (сл. И. Жданова)"
PERFORMER "Александр Дулов"
INDEX 01 07:40:50
TRACK 04 AUDIO
TITLE "Дымный чай (сл. И. Жданова)"
PERFORMER "Александр Дулов"
INDEX 01 09:47:50
TRACK 05 AUDIO
TITLE "Кузнечик (Ночь над гаванью стеклянной...) (сл. В. Сосноры)"
PERFORMER "Александр Дулов"
INDEX 01 12:31:00
TRACK 06 AUDIO
TITLE "Античная ваза (сл. А. Кушнера)"
PERFORMER "Александр Дулов"
INDEX 01 15:25:25
TRACK 07 AUDIO
TITLE "Корень зла (сл. Л. Мартынова)"
PERFORMER "Александр Дулов"
INDEX 01 19:03:00
TRACK 08 AUDIO
TITLE "Севилья (из поэмы Е. Евтушенко 'Коррида')"
PERFORMER "Александр Дулов"
INDEX 01 22:14:00
TRACK 09 AUDIO
TITLE "Бык (из поэмы Е. Евтушенко 'Коррида')"
PERFORMER "Александр Дулов"
INDEX 01 25:45:48
TRACK 10 AUDIO
TITLE "Лошадь пикадора (из поэмы Е. Евтушенко 'Коррида')"
PERFORMER "Александр Дулов"
INDEX 01 27:24:35
TRACK 11 AUDIO
TITLE "Публика (из поэмы Е. Евтушенко 'Коррида')"
PERFORMER "Александр Дулов"
INDEX 01 29:21:65
TRACK 12 AUDIO
TITLE "Тореро (из поэмы Е. Евтушенко 'Коррида')"
PERFORMER "Александр Дулов"
INDEX 01 31:35:30
TRACK 13 AUDIO
TITLE "Ну, пожалуйста... (сл. В. Тушновой)"
PERFORMER "Александр Дулов"
INDEX 01 34:00:00
TRACK 14 AUDIO
TITLE "Наш разговор (сл. М. Черкасовой)"
PERFORMER "Александр Дулов"
INDEX 01 37:48:55
TRACK 15 AUDIO
TITLE "Волчонок (Прикидываюсь, прикидываюсь...) (сл. Н. Королёвой в обр. А. Дулова)"
PERFORMER "Александр Дулов"
INDEX 01 39:54:45
TRACK 16 AUDIO
TITLE "Мальчик в свитере белом (сл. Н. Яворской) (обрывается)"
PERFORMER "Александр Дулов"
INDEX 01 43:20:30

Треклист (часть 2)
01 - 2:17 - Мальчик в свитере белом (сл. Н. Яворской)
02 - 2:02 - О детских песнях
03 - 1:24 - Шесть батонов (сл. Р. Сефа)
04 - 1:19 - Странное дело (сл. Р. Сефа)
05 - 1:42 - Лесная песенка (Столяр гулял в густом лесу...) (сл. Р. Сефа)
06 - 1:18 - Пятеро птенцов (сл. Р. Сефа)
07 - 3:09 - Прощай, позабудь... (сл. И. Бродского)
08 - 2:35 - О Николае Рубцове
09 - 3:25 - Грустные мысли (сл. Н. Рубцова)
10 - 2:25 - Элегия (Стукну по карману - не звенит...) (сл. Н. Рубцова)
11 - 2:51 - Размытый путь (сл. Н. Рубцова)
12 - 3:40 - Хромой король - Le roi boiteux (на франц. языке) (сл. М. Карема)
13 - 2:18 - Клюква (сл. Д. Сухарева)
14 - 2:28 - Фокусник (Он сделал страшное лицо...) (сл. А. Кушнера)
15 - 3:59 - Баллада о неандертальском Прометее (Ну, какой ты неандерталец...) (сл. О. Тарутина)
16 - 4:16 - Эпитафия (Я умру, как все иные...) (сл. О. Тарутина в обр. А. Дулова)
17 - 3:54 - Ой-ёй-ёй, а я несчастная девчоночка...
18 - 1:57 - Телепатия (сл. О. Тарутина)
19 - 3:29 - Гимн болотных геологов (Всё болота, болота, болота...) (сл. В. Лейкина)
20 - 3:23 - Три сосны (Стою, стою, роняя руки...) (сл. В. Павлинова)
21 - 4:46 - Мой милый изменил, ура, славься, роза... (французская народная песня)
Часть 2.cue

REM GENRE "Авторская песня"
REM DATE 1977
PERFORMER "Александр Дулов"
TITLE "Концерт в Теплопроекте, 14.10.1977 (часть 2)"
FILE "02.mp3" MP3
TRACK 01 AUDIO
TITLE "Мальчик в свитере белом (сл. Н. Яворской)"
PERFORMER "Александр Дулов"
INDEX 01 00:00:00
TRACK 02 AUDIO
TITLE "О детских песнях"
PERFORMER "Александр Дулов"
INDEX 01 02:17:16
TRACK 03 AUDIO
TITLE "Шесть батонов (сл. Р. Сефа)"
PERFORMER "Александр Дулов"
INDEX 01 04:19:10
TRACK 04 AUDIO
TITLE "Странное дело (сл. Р. Сефа)"
PERFORMER "Александр Дулов"
INDEX 01 05:42:50
TRACK 05 AUDIO
TITLE "Лесная песенка (Столяр гулял в густом лесу...) (сл. Р. Сефа)"
PERFORMER "Александр Дулов"
INDEX 01 07:01:35
TRACK 06 AUDIO
TITLE "Пятеро птенцов (сл. Р. Сефа)"
PERFORMER "Александр Дулов"
INDEX 01 08:43:70
TRACK 07 AUDIO
TITLE "Прощай, позабудь... (сл. И. Бродского)"
PERFORMER "Александр Дулов"
INDEX 01 10:01:50
TRACK 08 AUDIO
TITLE "О Николае Рубцове"
PERFORMER "Александр Дулов"
INDEX 01 13:11:10
TRACK 09 AUDIO
TITLE "Грустные мысли (сл. Н. Рубцова)"
PERFORMER "Александр Дулов"
INDEX 01 15:45:61
TRACK 10 AUDIO
TITLE "Элегия (Стукну по карману - не звенит...) (сл. Н. Рубцова)"
PERFORMER "Александр Дулов"
INDEX 01 19:10:45
TRACK 11 AUDIO
TITLE "Размытый путь (сл. Н. Рубцова)"
PERFORMER "Александр Дулов"
INDEX 01 21:35:35
TRACK 12 AUDIO
TITLE "Хромой король - Le roi boiteux (на франц. языке) (сл. М. Карема)"
PERFORMER "Александр Дулов"
INDEX 01 24:26:00
TRACK 13 AUDIO
TITLE "Клюква (сл. Д. Сухарева)"
PERFORMER "Александр Дулов"
INDEX 01 28:05:65
TRACK 14 AUDIO
TITLE "Фокусник (Он сделал страшное лицо...) (сл. А. Кушнера)"
PERFORMER "Александр Дулов"
INDEX 01 30:24:15
TRACK 15 AUDIO
TITLE "Баллада о неандертальском Прометее (Ну, какой ты неандерталец...) (сл. О. Тарутина)"
PERFORMER "Александр Дулов"
INDEX 01 32:52:05
TRACK 16 AUDIO
TITLE "Эпитафия (Я умру, как все иные...) (сл. О. Тарутина в обр. А. Дулова)"
PERFORMER "Александр Дулов"
INDEX 01 36:51:15
TRACK 17 AUDIO
TITLE "Ой-ёй-ёй, а я несчастная девчоночка..."
PERFORMER "Александр Дулов"
INDEX 01 41:06:60
FILE "03.mp3" MP3
TRACK 18 AUDIO
TITLE "Телепатия (сл. О. Тарутина)"
PERFORMER "Александр Дулов"
INDEX 01 00:00:00
TRACK 19 AUDIO
TITLE "Гимн болотных геологов (Всё болота, болота, болота...) (сл. В. Лейкина)"
PERFORMER "Александр Дулов"
INDEX 01 01:57:15
TRACK 20 AUDIO
TITLE "Три сосны (Стою, стою, роняя руки...) (сл. В. Павлинова)"
PERFORMER "Александр Дулов"
INDEX 01 05:26:05
TRACK 21 AUDIO
TITLE "Мой милый изменил, ура, славься, роза... (французская народная песня)"
PERFORMER "Александр Дулов"
INDEX 01 08:49:00

1981-весна - выступление в Минске
Треклист
01 - 0:10 - Объявление (В. Буряк)
02 - 2:07 - Костёр (Чего только не копится в карманах пиджака...) (сл. Л. Мартынова)
03 - 2:42 - Ритмы Рима (Забыли нас, любимый мой...) (сл. Е. Евтушенко)
04 - 2:13 - Ветер (Будто впрямь по чью-то душу...) (сл. Л. Мартынова)
05 - 2:45 - Корень зла (сл. Л. Мартынова)
06 - 3:01 - Севилья (из поэмы Е. Евтушенко 'Коррида')
07 - 1:32 - Бык (из поэмы Е. Евтушенко 'Коррида')
08 - 1:49 - Лошадь пикадора (из поэмы Е. Евтушенко 'Коррида')
09 - 2:03 - Публика (из поэмы Е. Евтушенко 'Коррида')
10 - 2:14 - Тореро (из поэмы Е. Евтушенко 'Коррида')
11 - 1:58 - Ну, пожалуйста... (сл. В. Тушновой)
12 - 1:46 - Наш разговор (сл. М. Черкасовой)
13 - 1:03 - Странное дело (сл. Р. Сефа)
14 - 1:12 - Пятеро птенцов (сл. Р. Сефа)
15 - 4:13 - Бабий Яр (сл. Е. Евтушенко)
16 - 3:04 - Русский язык (сл. И. Тургенева)
17 - 2:31 - Ложь и злоба миром правят... (сл. Примаса Орлеанского)
18 - 2:20 - Пригвождена к позорному столбу... (сл. М. Цветаевой)
19 - 1:08 - Элегия (Стукнул по карману - не звенит...) (сл. Н. Рубцова) (обрывается)
20 - 0:13 - Объявление (В. Буряк)
21 - 2:01 - Элегия (Стукнул по карману - не звенит...) (сл. Н. Рубцова)
22 - 2:23 - Клюква (сл. Д. Сухарева)
23 - 4:16 - Баллада о неандертальском Прометее (Ну, какой ты неандерталец...) (сл. О. Тарутина)
Александр Дулов.cue

REM GENRE "Авторская песня"
REM DATE 1981
PERFORMER "Александр Дулов"
TITLE "Концерт в Минске, весна 1981"
FILE "начало\00 объявление (В.Буряк).mp3" MP3
TRACK 01 AUDIO
TITLE "Объявление (В. Буряк)"
PERFORMER "Александр Дулов"
INDEX 01 00:00:00
FILE "начало\01 Дулов (Минск, весна 81).mp3" MP3
TRACK 02 AUDIO
TITLE "Костёр (Чего только не копится в карманах пиджака...) (сл. Л. Мартынова)"
PERFORMER "Александр Дулов"
INDEX 01 00:00:00
TRACK 03 AUDIO
TITLE "Ритмы Рима (Забыли нас, любимый мой...) (сл. Е. Евтушенко)"
PERFORMER "Александр Дулов"
INDEX 01 02:06:65
TRACK 04 AUDIO
TITLE "Ветер (Будто впрямь по чью-то душу...) (сл. Л. Мартынова)"
PERFORMER "Александр Дулов"
INDEX 01 04:49:10
TRACK 05 AUDIO
TITLE "Корень зла (сл. Л. Мартынова)"
PERFORMER "Александр Дулов"
INDEX 01 07:02:30
TRACK 06 AUDIO
TITLE "Севилья (из поэмы Е. Евтушенко 'Коррида')"
PERFORMER "Александр Дулов"
INDEX 01 09:47:60
TRACK 07 AUDIO
TITLE "Бык (из поэмы Е. Евтушенко 'Коррида')"
PERFORMER "Александр Дулов"
INDEX 01 12:49:00
TRACK 08 AUDIO
TITLE "Лошадь пикадора (из поэмы Е. Евтушенко 'Коррида')"
PERFORMER "Александр Дулов"
INDEX 01 14:20:45
TRACK 09 AUDIO
TITLE "Публика (из поэмы Е. Евтушенко 'Коррида')"
PERFORMER "Александр Дулов"
INDEX 01 16:09:15
TRACK 10 AUDIO
TITLE "Тореро (из поэмы Е. Евтушенко 'Коррида')"
PERFORMER "Александр Дулов"
INDEX 01 18:12:20
TRACK 11 AUDIO
TITLE "Ну, пожалуйста... (сл. В. Тушновой)"
PERFORMER "Александр Дулов"
INDEX 01 20:26:00
TRACK 12 AUDIO
TITLE "Наш разговор (сл. М. Черкасовой)"
PERFORMER "Александр Дулов"
INDEX 01 22:24:30
TRACK 13 AUDIO
TITLE "Странное дело (сл. Р. Сефа)"
PERFORMER "Александр Дулов"
INDEX 01 24:10:20
TRACK 14 AUDIO
TITLE "Пятеро птенцов (сл. Р. Сефа)"
PERFORMER "Александр Дулов"
INDEX 01 25:13:05
TRACK 15 AUDIO
TITLE "Бабий Яр (сл. Е. Евтушенко)"
PERFORMER "Александр Дулов"
INDEX 01 26:25:00
TRACK 16 AUDIO
TITLE "Русский язык (сл. И. Тургенева)"
PERFORMER "Александр Дулов"
INDEX 01 30:38:25
TRACK 17 AUDIO
TITLE "Ложь и злоба миром правят... (сл. Примаса Орлеанского)"
PERFORMER "Александр Дулов"
INDEX 01 33:42:00
TRACK 18 AUDIO
TITLE "Пригвождена к позорному столбу... (сл. М. Цветаевой)"
PERFORMER "Александр Дулов"
INDEX 01 36:13:00
TRACK 19 AUDIO
TITLE "Элегия (Стукнул по карману - не звенит...) (сл. Н. Рубцова) (обрывается)"
PERFORMER "Александр Дулов"
INDEX 01 38:33:00
FILE "окончание\00_ объявление (В.Буряк).mp3" MP3
TRACK 20 AUDIO
TITLE "Объявление (В. Буряк)"
PERFORMER "Александр Дулов"
INDEX 01 00:00:00
FILE "окончание\02 Дулов (Минск, весна 81).mp3" MP3
TRACK 21 AUDIO
TITLE "Элегия (Стукнул по карману - не звенит...) (сл. Н. Рубцова)"
PERFORMER "Александр Дулов"
INDEX 01 00:00:00
TRACK 22 AUDIO
TITLE "Клюква (сл. Д. Сухарева)"
PERFORMER "Александр Дулов"
INDEX 01 02:01:30
TRACK 23 AUDIO
TITLE "Баллада о неандертальском Прометее (Ну, какой ты неандерталец...) (сл. О. Тарутина)"
PERFORMER "Александр Дулов"
INDEX 01 04:24:02

Скрытый текст (вы должны зарегистрироваться или войти под своим логином):
У вас нет прав чтобы видеть скрытый текст, содержащейся здесь.


Скрытый текст (вы должны зарегистрироваться или войти под своим логином):
У вас нет прав чтобы видеть скрытый текст, содержащейся здесь.


Дмитрий вне форума   Ответить с цитированием
Пользователь сказал cпасибо:
Гоголевский (06.04.2020)