Показать сообщение отдельно
Старый 04.05.2018, 19:00   #9
RostiC
VIP
 

Регистрация: 04.03.2017
Сообщений: 74
Сказал(а) спасибо: 565
Поблагодарили 64 раз(а) в 38 сообщениях
RostiC как роза среди колючекRostiC как роза среди колючекRostiC как роза среди колючекRostiC как роза среди колючек
По умолчанию

Для 1981 г. CUE (сам файл wave переименован):
REM GENRE "Disco"
REM DATE 1981
REM COMMENT "Оцифровка - Бобрович"
TITLE "Billy’s Barbeque"
PERFORMER "Arabesque"
FILE "1981.wave" WAVE
TRACK 01 AUDIO
TITLE "In For A Penny, In For A Pound"
PERFORMER "Arabesque"
INDEX 01 00:00:00
TRACK 02 AUDIO
TITLE "The Hero of My Life"
PERFORMER "Arabesque"
INDEX 01 03:00:00
TRACK 03 AUDIO
TITLE "Like A Shot In The Dark"
PERFORMER "Arabesque"
INDEX 01 06:46:00
TRACK 04 AUDIO
TITLE "Run The Show"
PERFORMER "Arabesque"
INDEX 01 10:30:00
TRACK 05 AUDIO
TITLE "Indio Boy"
PERFORMER "Arabesque"
INDEX 01 13:46:30
TRACK 06 AUDIO
TITLE "Billy's Barbeque"
PERFORMER "Arabesque"
INDEX 01 17:53:00
TRACK 07 AUDIO
TITLE "The Doctor Likes Music"
PERFORMER "Arabesque"
INDEX 01 20:42:00
TRACK 08 AUDIO
TITLE "The Rebels of The Bounty"
PERFORMER "Arabesque"
INDEX 01 23:39:30
TRACK 09 AUDIO
TITLE "Let's Make A Night of it"
PERFORMER "Arabesque"
INDEX 01 27:38:50
TRACK 10 AUDIO
TITLE "I Stand By You"
PERFORMER "Arabesque"
INDEX 01 31:09:00
RostiC вне форума   Ответить с цитированием