Показать сообщение отдельно
Старый 28.02.2013, 07:31   #2
Дмитрий
Music Group
 
Аватар для Дмитрий
 

Регистрация: 12.12.2008
Адрес: Москва прошлого тысячелетия.
Сообщений: 109,959
Сказал(а) спасибо: 26,805
Поблагодарили 118,408 раз(а) в 45,467 сообщениях
Дмитрий репутация неоспоримаДмитрий репутация неоспоримаДмитрий репутация неоспоримаДмитрий репутация неоспоримаДмитрий репутация неоспоримаДмитрий репутация неоспоримаДмитрий репутация неоспоримаДмитрий репутация неоспоримаДмитрий репутация неоспоримаДмитрий репутация неоспоримаДмитрий репутация неоспорима
Отправить сообщение для Дмитрий с помощью Skype™
По умолчанию

Для тех, кто скачал раньше CUE:

Цитата:
REM GENRE Инструментал
REM DATE 1990
PERFORMER "Accordeon Hits"
TITLE "..."
REM COMMENT "Оцифровка - Борис 63"
FILE "Accordeon Hits.flac" WAVE
TRACK 01 AUDIO
TITLE "TRACK 01"
PERFORMER "Accordeon Hits"
INDEX 01 00:00:00
TRACK 02 AUDIO
TITLE "TRACK 02"
PERFORMER "Accordeon Hits"
INDEX 01 02:41:63
TRACK 03 AUDIO
TITLE "TRACK 03"
PERFORMER "Accordeon Hits"
INDEX 01 05:33:08
TRACK 04 AUDIO
TITLE "TRACK 04"
PERFORMER "Accordeon Hits"
INDEX 01 08:28:63
TRACK 05 AUDIO
TITLE "TRACK 05"
PERFORMER "Accordeon Hits"
INDEX 01 11:15:38
TRACK 06 AUDIO
TITLE "TRACK 06"
PERFORMER "Accordeon Hits"
INDEX 01 13:26:54
TRACK 07 AUDIO
TITLE "TRACK 07"
PERFORMER "Accordeon Hits"
INDEX 01 15:36:63
TRACK 08 AUDIO
TITLE "TRACK 08"
PERFORMER "Accordeon Hits"
INDEX 01 18:55:21
TRACK 09 AUDIO
TITLE "TRACK 09"
PERFORMER "Accordeon Hits"
INDEX 01 21:57:07
TRACK 10 AUDIO
TITLE "TRACK 10"
PERFORMER "Accordeon Hits"
INDEX 01 24:05:17
TRACK 11 AUDIO
TITLE "TRACK 11"
PERFORMER "Accordeon Hits"
INDEX 01 26:40:35
TRACK 12 AUDIO
TITLE "TRACK 12"
PERFORMER "Accordeon Hits"
INDEX 01 28:51:01
TRACK 13 AUDIO
TITLE "TRACK 13"
PERFORMER "Accordeon Hits"
INDEX 01 32:01:51
TRACK 14 AUDIO
TITLE "TRACK 14"
PERFORMER "Accordeon Hits"
INDEX 01 35:02:71
TRACK 15 AUDIO
TITLE "TRACK 15"
PERFORMER "Accordeon Hits"
INDEX 01 38:35:54
TRACK 16 AUDIO
TITLE "TRACK 16"
PERFORMER "Accordeon Hits"
INDEX 01 41:29:21
TRACK 17 AUDIO
TITLE "TRACK 17"
PERFORMER "Accordeon Hits"
INDEX 01 43:39:69
и ссылка с разбивкой по времени.

Jan Holland по всей видимости.
__________________












Ccылка на тему: Как скачивать с Яндекс диска!

Чтобы быстро скачать чужой опубликованный файл, сохраните его на свой Диск. На вашем Диске файл окажется мгновенно, а свои файлы вы всегда можете скачать без ограничений. Для этого нужно пройти регистрацию на https://mail.yandex.ru/

Уж лучше голодать, чем что попало есть... И лучше одному, чем вместе с кем попало.

Не работают ссылки, не надо флудить в теме. Сообщите ЗДЕСЬ!




Скачал и не оставил комментарий - понизил релизёру мотивацию делиться с окружающими!

Команда Все Тут желает Вам приятного прослушивания!



Дмитрий вне форума   Ответить с цитированием
5 пользователя(ей) сказали cпасибо:
cloud (24.01.2018), fremde (04.11.2015), Синдикат (01.03.2013), PUSSEN (01.03.2013), zhu (25.06.2015)