Все Тут Online
Все Тут Online
Новые сообщения
Все сообщения за последних 24 часа
Расширенный Поиск

   
Меню сайта:
Главная
Форум
Чат
- Online приложения:
- Игры
- Выбор стиля:
- FAQ
- Для начинающих

Вернуться   Все Тут Online > МАГНИТИЗДАТ (Оцифровки Кассет и Бобин) (lossless) > В гостях у Бориса 63 (Оцифровки с бобин и с кассет) > Рок Музыка (Lossless)

Старый 11.01.2018, 14:59   #1
Борис 63
Супермодератор. Смотрящий за форумом. Модератор разделов оцифровок.
 
Аватар для Борис 63
 

Регистрация: 01.02.2010
Адрес: СССР Москва
Сообщений: 12,922
Сказал(а) спасибо: 6,778
Поблагодарили 40,960 раз(а) в 6,612 сообщениях
Борис 63 репутация неоспоримаБорис 63 репутация неоспоримаБорис 63 репутация неоспоримаБорис 63 репутация неоспоримаБорис 63 репутация неоспоримаБорис 63 репутация неоспоримаБорис 63 репутация неоспоримаБорис 63 репутация неоспоримаБорис 63 репутация неоспоримаБорис 63 репутация неоспоримаБорис 63 репутация неоспорима
По умолчанию (24/96) гр. АЛЬФА (1983) (с катушки) (lossless)



Оцифровка с катушки.

Подающий аппарат - на фото.

Катушка предоставлена Игорем (Капитан_Воронин) - спасибо ему.

Треклист:

01 Альфа - Расклейщик афиш
02 Альфа - Звук знакомой песни
03 Альфа - Шторм
04 Альфа - Нет звёзд на свете горящих ясно
05 Альфа - И опускался в сердце мне покой
06 Альфа - Икар
07 Альфа - Я московский озорной гуляка
08 Альфа - Бесконечность
09 Альфа - Гонка (Первый вариант)
10 Альфа - Театр


ссылка


Скрытый текст (вы должны зарегистрироваться или войти под своим логином):
У вас нет прав чтобы видеть скрытый текст, содержащейся здесь.
__________________
Ccылка на тему: Как скачивать с Яндекс диска!

Чтобы быстро скачать чужой опубликованный файл, сохраните его на свой Диск. На вашем Диске файл окажется мгновенно, а свои файлы вы всегда можете скачать без ограничений.
Борис 63 вне форума   Ответить с цитированием
19 пользователя(ей) сказали cпасибо:
ДенисПоПов27 (11.01.2018), ВладиславВ (12.01.2018), александр69 (13.01.2018), Вит70 (11.01.2018), Дмитрий (11.01.2018), bobrovich (11.01.2018), cthutq_1956 (11.01.2018), Erg Noor (19.01.2018), gnrtbc (14.01.2018), марьяша (11.01.2018), Igor71 (12.01.2018), Мэтроскин (13.01.2018), Сани (12.01.2018), Саша (beloborod) (11.01.2018), фёдор1969 (11.01.2018), pofnutiy (11.01.2018), suede69 (12.01.2018), Yury_T (13.01.2018), Юрий718 (12.01.2018)
Старый 12.01.2018, 04:37   #2
Дмитрий
Music Group
 
Аватар для Дмитрий
 

Регистрация: 12.12.2008
Адрес: Москва прошлого тысячелетия.
Сообщений: 113,242
Сказал(а) спасибо: 25,390
Поблагодарили 113,470 раз(а) в 45,162 сообщениях
Дмитрий репутация неоспоримаДмитрий репутация неоспоримаДмитрий репутация неоспоримаДмитрий репутация неоспоримаДмитрий репутация неоспоримаДмитрий репутация неоспоримаДмитрий репутация неоспоримаДмитрий репутация неоспоримаДмитрий репутация неоспоримаДмитрий репутация неоспоримаДмитрий репутация неоспорима
Отправить сообщение для Дмитрий с помощью Skype™
По умолчанию

CUE: https://yadi.sk/d/6JPB9eVC3RP8tm

Код:
REM GENRE "Рок"
REM COMMENT "Оцифровка - Борис 63"
TITLE "Магнитоальбом"
PERFORMER "Альфа"
FILE "Альфа.flac" WAVE
  TRACK 01 AUDIO
TITLE "Расклейщик афиш"
PERFORMER "Альфа"
    INDEX 01 00:00:00
  TRACK 02 AUDIO
TITLE "Звук знакомой песни"
PERFORMER "Альфа"
    INDEX 01 04:20:55
  TRACK 03 AUDIO
TITLE "Шторм"
PERFORMER "Альфа"
    INDEX 01 08:11:72
  TRACK 04 AUDIO
TITLE "Нет звёзд на свете горящих ясно"
PERFORMER "Альфа"
    INDEX 01 13:30:27
  TRACK 05 AUDIO
TITLE "И опускался в сердце мне покой"
PERFORMER "Альфа"
    INDEX 01 20:15:67
  TRACK 06 AUDIO
TITLE "Икар"
PERFORMER "Альфа"
    INDEX 01 23:54:16
  TRACK 07 AUDIO
TITLE "Я московский озорной гуляка"
PERFORMER "Альфа"
    INDEX 01 27:49:01
  TRACK 08 AUDIO
TITLE "Бесконечность"
PERFORMER "Альфа"
    INDEX 01 31:07:29
  TRACK 09 AUDIO
TITLE "Гонка (Первый вариант)"
PERFORMER "Альфа"
    INDEX 01 34:28:56
  TRACK 10 AUDIO
TITLE "Театр"
PERFORMER "Альфа"
    INDEX 01 39:41:24
__________________












Ccылка на тему: Как скачивать с Яндекс диска!

Чтобы быстро скачать чужой опубликованный файл, сохраните его на свой Диск. На вашем Диске файл окажется мгновенно, а свои файлы вы всегда можете скачать без ограничений. Для этого нужно пройти регистрацию на https://mail.yandex.ru/

Уж лучше голодать, чем что попало есть... И лучше одному, чем вместе с кем попало.

Не работают ссылки, не надо флудить в теме. Сообщите ЗДЕСЬ!




Скачал и не оставил комментарий - понизил релизёру мотивацию делиться с окружающими!

Команда Все Тут желает Вам приятного прослушивания!



Дмитрий вне форума   Ответить с цитированием
4 пользователя(ей) сказали cпасибо:
cthutq_1956 (12.01.2018), Мэтроскин (13.01.2018), pchu (12.01.2018), suede69 (12.01.2018)
Ответ

Закладки

Опции темы
Опции просмотра

Ваши права в разделе
Вы не можете создавать новые темы
Вы не можете отвечать в темах
Вы не можете прикреплять вложения
Вы не можете редактировать свои сообщения

BB коды Вкл.
Смайлы Вкл.
[IMG] код Вкл.
HTML код Выкл.

Быстрый переход


Часовой пояс GMT, время: 20:19.


Powered by vBulletin® Version 3.8.2
Copyright ©2000 - 2018, Jelsoft Enterprises Ltd. Перевод: zCarot
Rambler's Top100 Республика Татарстан - Каталог сайтов