Все Тут Online
Все Тут Online
Новые сообщения
Все сообщения за последних 24 часа
Расширенный Поиск

   
Меню сайта:
Главная
Форум
Чат
- Online приложения:
- Игры
- Выбор стиля:
- FAQ
- Для начинающих

Вернуться   Все Тут Online > МАГНИТИЗДАТ (Оцифровки Кассет и Бобин) (lossless) > В гостях у Бориса 63 (Оцифровки с бобин и с кассет) > Рок Музыка (Lossless)

Старый 11.01.2018, 15:56   #1
Борис 63
Супермодератор. Смотрящий за форумом. Модератор разделов оцифровок.
 
Аватар для Борис 63
 

Регистрация: 01.02.2010
Адрес: СССР Москва
Сообщений: 13,585
Сказал(а) спасибо: 7,545
Поблагодарили 44,188 раз(а) в 7,136 сообщениях
Борис 63 репутация неоспоримаБорис 63 репутация неоспоримаБорис 63 репутация неоспоримаБорис 63 репутация неоспоримаБорис 63 репутация неоспоримаБорис 63 репутация неоспоримаБорис 63 репутация неоспоримаБорис 63 репутация неоспоримаБорис 63 репутация неоспоримаБорис 63 репутация неоспоримаБорис 63 репутация неоспорима
По умолчанию (24/96) Юрий Лоза - Путешествие в Рок-н-Ролл (1983) (lossless)




Оцифровка с катушки Игоря (Капитан_Воронин)

Версия оцифровки - катушек и копий много - выбирать вам.

Здесь есть провалы. И запись замедленная.

Треклист:

01 Лоза - Телефонный рок-н-ролл
02 Лоза - Девочка сегодня в баре
03 Лоза - Мой приятель – голубой
04 Лоза - Достала
05 Лоза - Купи мне, мама, джинсы!
06 Лоза - Пора по чуть-чуть
07 Лоза - Старый лимузин
08 Лоза - Дядя швейцар
09 Лоза - У меня мал папа
10 Лоза - Утро с похмелья


ссылка FLAC+CUE:


Скрытый текст (вы должны зарегистрироваться или войти под своим логином):
У вас нет прав чтобы видеть скрытый текст, содержащейся здесь.
__________________
Ccылка на тему: Как скачивать с Яндекс диска!

Чтобы быстро скачать чужой опубликованный файл, сохраните его на свой Диск. На вашем Диске файл окажется мгновенно, а свои файлы вы всегда можете скачать без ограничений.
Борис 63 вне форума   Ответить с цитированием
11 пользователя(ей) сказали cпасибо:
ДенисПоПов27 (11.01.2018), барагоз (12.01.2018), александр69 (13.01.2018), Вит70 (11.01.2018), Дмитрий (11.01.2018), Korvet (12.01.2018), Саша (beloborod) (11.01.2018), Слава швед (11.01.2018), фёдор1969 (12.01.2018), pofnutiy (11.01.2018), suede69 (12.01.2018)
Старый 11.01.2018, 16:31   #2
Слава швед
VIP
 
Аватар для Слава швед
 

Регистрация: 02.11.2013
Адрес: Стокгольм, Швеция
Сообщений: 2,214
Сказал(а) спасибо: 1,939
Поблагодарили 1,464 раз(а) в 914 сообщениях
Слава швед репутация неоспоримаСлава швед репутация неоспоримаСлава швед репутация неоспоримаСлава швед репутация неоспоримаСлава швед репутация неоспоримаСлава швед репутация неоспоримаСлава швед репутация неоспоримаСлава швед репутация неоспоримаСлава швед репутация неоспоримаСлава швед репутация неоспоримаСлава швед репутация неоспорима
По умолчанию

О! "Девочку поймали баре, а на ней крутые штаны."
__________________
Никогда не вспоминал о прошлом,
Неустанно двигаясь вперёд
И всегда считал себя хорошим
Хоть и поступал наоборот
Слава швед вне форума   Ответить с цитированием
Пользователь сказал cпасибо:
Борис 63 (11.01.2018)
Старый 11.01.2018, 22:26   #3
Слава швед
VIP
 
Аватар для Слава швед
 

Регистрация: 02.11.2013
Адрес: Стокгольм, Швеция
Сообщений: 2,214
Сказал(а) спасибо: 1,939
Поблагодарили 1,464 раз(а) в 914 сообщениях
Слава швед репутация неоспоримаСлава швед репутация неоспоримаСлава швед репутация неоспоримаСлава швед репутация неоспоримаСлава швед репутация неоспоримаСлава швед репутация неоспоримаСлава швед репутация неоспоримаСлава швед репутация неоспоримаСлава швед репутация неоспоримаСлава швед репутация неоспоримаСлава швед репутация неоспорима
По умолчанию

Кстати, а почему игла падает если с ленты?
__________________
Никогда не вспоминал о прошлом,
Неустанно двигаясь вперёд
И всегда считал себя хорошим
Хоть и поступал наоборот
Слава швед вне форума   Ответить с цитированием
Старый 12.01.2018, 03:59   #4
Дмитрий
Music Group
 
Аватар для Дмитрий
 

Регистрация: 12.12.2008
Адрес: Москва прошлого тысячелетия.
Сообщений: 110,024
Сказал(а) спасибо: 26,820
Поблагодарили 118,517 раз(а) в 45,497 сообщениях
Дмитрий репутация неоспоримаДмитрий репутация неоспоримаДмитрий репутация неоспоримаДмитрий репутация неоспоримаДмитрий репутация неоспоримаДмитрий репутация неоспоримаДмитрий репутация неоспоримаДмитрий репутация неоспоримаДмитрий репутация неоспоримаДмитрий репутация неоспоримаДмитрий репутация неоспорима
Отправить сообщение для Дмитрий с помощью Skype™
По умолчанию

Вижу, вижу у многих светлые воспоминания с этим альбомом! Вспомнили и девочку в баре и дядю швейцара
Именно так и звучало на многочисленных копиях катушек, ничего не чистили.

CUE: https://yadi.sk/d/VTGWlWta3RP7uN

Код:
REM GENRE "Рок"
REM COMMENT "Оцифровка - Борис 63"
TITLE "Магнитоальбом"
PERFORMER "Лоза"
FILE "Лоза.flac" WAVE
  TRACK 01 AUDIO
TITLE "Телефонный рок-н-ролл"
PERFORMER "Лоза"
    INDEX 01 00:02:47
  TRACK 02 AUDIO
TITLE "Девочка сегодня в баре"
PERFORMER "Лоза"
    INDEX 01 04:42:64
  TRACK 03 AUDIO
TITLE "Мой приятель – голубой"
PERFORMER "Лоза"
    INDEX 01 08:44:27
  TRACK 04 AUDIO
TITLE "Достала"
PERFORMER "Лоза"
    INDEX 01 14:54:42
  TRACK 05 AUDIO
TITLE "Купи мне, мама, джинсы!"
PERFORMER "Лоза"
    INDEX 01 18:53:66
  TRACK 06 AUDIO
TITLE "Пора по чуть-чуть"
PERFORMER "Лоза"
    INDEX 01 22:40:04
  TRACK 07 AUDIO
TITLE "Старый лимузин"
PERFORMER "Лоза"
    INDEX 01 28:15:72
  TRACK 08 AUDIO
TITLE "Дядя швейцар"
PERFORMER "Лоза"
    INDEX 01 31:09:63
  TRACK 09 AUDIO
TITLE "У меня мал папа"
PERFORMER "Лоза"
    INDEX 01 34:56:66
  TRACK 10 AUDIO
TITLE "Утро с похмелья"
PERFORMER "Лоза"
    INDEX 01 39:00:40
__________________












Ccылка на тему: Как скачивать с Яндекс диска!

Чтобы быстро скачать чужой опубликованный файл, сохраните его на свой Диск. На вашем Диске файл окажется мгновенно, а свои файлы вы всегда можете скачать без ограничений. Для этого нужно пройти регистрацию на https://mail.yandex.ru/

Уж лучше голодать, чем что попало есть... И лучше одному, чем вместе с кем попало.

Не работают ссылки, не надо флудить в теме. Сообщите ЗДЕСЬ!




Скачал и не оставил комментарий - понизил релизёру мотивацию делиться с окружающими!

Команда Все Тут желает Вам приятного прослушивания!



Дмитрий вне форума   Ответить с цитированием
2 пользователя(ей) сказали cпасибо:
pchu (12.01.2018), suede69 (12.01.2018)
Ответ

Закладки

Опции темы
Опции просмотра

Ваши права в разделе
Вы не можете создавать новые темы
Вы не можете отвечать в темах
Вы не можете прикреплять вложения
Вы не можете редактировать свои сообщения

BB коды Вкл.
Смайлы Вкл.
[IMG] код Вкл.
HTML код Выкл.

Быстрый переход


Часовой пояс GMT, время: 23:51.


Powered by vBulletin® Version 3.8.2
Copyright ©2000 - 2018, Jelsoft Enterprises Ltd. Перевод: zCarot
Rambler's Top100 Республика Татарстан - Каталог сайтов