Все Тут Online
Все Тут Online
Новые сообщения
Все сообщения за последних 24 часа
Расширенный Поиск

   
Меню сайта:
Главная
Форум
Чат
- Online приложения:
- Игры
- Выбор стиля:
- FAQ
- Для начинающих

Вернуться   Все Тут Online > ОЦИФРОВКИ ВИНИЛА (Lossless) > Оцифровки ВИНИЛА пользователей нашего форума > Оцифровки Борис 63 (Technics SL-1200 MK3D // Victor QL-A7 [Audio-Technica AT440MLa] => Accuphase 200

Старый 06.08.2018, 10:53   #1
Борис 63
Супермодератор. Смотрящий за форумом. Модератор разделов оцифровок.
 
Аватар для Борис 63
 

Регистрация: 01.02.2010
Адрес: СССР Москва
Сообщений: 13,386
Сказал(а) спасибо: 7,336
Поблагодарили 43,414 раз(а) в 6,995 сообщениях
Борис 63 репутация неоспоримаБорис 63 репутация неоспоримаБорис 63 репутация неоспоримаБорис 63 репутация неоспоримаБорис 63 репутация неоспоримаБорис 63 репутация неоспоримаБорис 63 репутация неоспоримаБорис 63 репутация неоспоримаБорис 63 репутация неоспоримаБорис 63 репутация неоспоримаБорис 63 репутация неоспорима
По умолчанию (24|/96) Gino Soccio -outline- (Lossless)










Оцифровка с пластинки из личной коллекции.

ссылка


Скрытый текст (вы должны зарегистрироваться или войти под своим логином):
У вас нет прав чтобы видеть скрытый текст, содержащейся здесь.
__________________
Ccылка на тему: Как скачивать с Яндекс диска!

Чтобы быстро скачать чужой опубликованный файл, сохраните его на свой Диск. На вашем Диске файл окажется мгновенно, а свои файлы вы всегда можете скачать без ограничений.
Борис 63 вне форума   Ответить с цитированием
9 пользователя(ей) сказали cпасибо:
Бархан (06.08.2018), Дмитрий (06.08.2018), belomor30 (15.09.2018), cthutq_1956 (06.08.2018), Fellow (15.09.2018), ниkолай (27.08.2018), Саша (beloborod) (06.08.2018), Слава швед (06.08.2018), vto69 (15.09.2018)
Старый 06.08.2018, 11:19   #2
Слава швед
VIP
 
Аватар для Слава швед
 

Регистрация: 02.11.2013
Адрес: Стокгольм, Швеция
Сообщений: 2,345
Сказал(а) спасибо: 2,027
Поблагодарили 1,519 раз(а) в 958 сообщениях
Слава швед репутация неоспоримаСлава швед репутация неоспоримаСлава швед репутация неоспоримаСлава швед репутация неоспоримаСлава швед репутация неоспоримаСлава швед репутация неоспоримаСлава швед репутация неоспоримаСлава швед репутация неоспоримаСлава швед репутация неоспоримаСлава швед репутация неоспоримаСлава швед репутация неоспорима
По умолчанию

Классический альбом!

Песенка "Dancer" 1979 года, продолжила свою жизнь у других артистов, наверняка узнаете у кого.
Да и в целом альбом оказал и оказывает большое влияние на музыку в разных странах.

__________________
Никогда не вспоминал о прошлом,
Неустанно двигаясь вперёд
И всегда считал себя хорошим
Хоть и поступал наоборот
Слава швед вне форума   Ответить с цитированием
2 пользователя(ей) сказали cпасибо:
Борис 63 (06.08.2018), Fellow (15.09.2018)
Старый 15.09.2018, 06:59   #3
belomor30
Местный
 
Аватар для belomor30
 

Регистрация: 28.10.2015
Адрес: Город Пермь
Сообщений: 178
Сказал(а) спасибо: 544
Поблагодарили 271 раз(а) в 109 сообщениях
belomor30 за этого человека можно гордитсяbelomor30 за этого человека можно гордитсяbelomor30 за этого человека можно гордитсяbelomor30 за этого человека можно гордитсяbelomor30 за этого человека можно гордитсяbelomor30 за этого человека можно гордитсяbelomor30 за этого человека можно гордитсяbelomor30 за этого человека можно гордитсяbelomor30 за этого человека можно гордитсяbelomor30 за этого человека можно гордится
По умолчанию

Надо же, даже не слышал про такого исполнителя. Очень интересная музыка оказалась, спасибо.
Почитал про него и понял, что слышал его другой проект "Kebekelektrik".
Век, как говорится, живи - век учись...

Ну и по традиции для всех желающих куй:
Gino Soccio (p)1979 Outline
Код:
REM GENRE Electronic / Disco / Funk
REM DATE 1979
REM COMMENT "Equipment: 'Technics SL-1200 MK3D' => Audio-Technica AT440MLa => 'Accuphase 200'"
REM COMMENT "Label: Warner Bros. Records - W 56620, RFC Records - 3309, Italy"
REM COMMENT "Specially for http://vsetutonline.com"
REM COMMENT "Оцифровка - Борис 63"   
PERFORMER "Gino Soccio"
TITLE "Outline"
FILE "Gino Soccio.flac" WAVE
  TRACK 01 AUDIO
    TITLE "Dancer"
    PERFORMER "Gino Soccio"
    INDEX 01 00:00:00
  TRACK 02 AUDIO
    TITLE "So Lonely"
    PERFORMER "Gino Soccio"
    INDEX 01 08:31:50
  TRACK 03 AUDIO
    TITLE "The Visitors"
    PERFORMER "Gino Soccio"
    INDEX 01 10:37:00
  TRACK 04 AUDIO
    TITLE "Dance To Dance"
    PERFORMER "Gino Soccio"
    INDEX 01 17:32:00
  TRACK 05 AUDIO
    TITLE "There's A Woman"
    PERFORMER "Gino Soccio"
    INDEX 01 24:49:00
П.С. Жалко, что при оформлении нельзя под спойлер текст спрятать, а то больно много места на страничке занимает.
belomor30 на форуме   Ответить с цитированием
2 пользователя(ей) сказали cпасибо:
Fellow (15.09.2018), mlkn658776jvg (15.09.2018)
Старый 15.09.2018, 07:36   #4
cthutq_1956
VIP
 
Аватар для cthutq_1956
 

Регистрация: 17.11.2016
Адрес: Челябинск
Сообщений: 3,522
Сказал(а) спасибо: 5,857
Поблагодарили 1,823 раз(а) в 1,353 сообщениях
cthutq_1956 репутация неоспоримаcthutq_1956 репутация неоспоримаcthutq_1956 репутация неоспоримаcthutq_1956 репутация неоспоримаcthutq_1956 репутация неоспоримаcthutq_1956 репутация неоспоримаcthutq_1956 репутация неоспоримаcthutq_1956 репутация неоспоримаcthutq_1956 репутация неоспоримаcthutq_1956 репутация неоспоримаcthutq_1956 репутация неоспорима
По умолчанию

Борис 63, забавный музончик ,послушал ,нормально ,спасибо за труды и щедрость .
cthutq_1956 вне форума   Ответить с цитированием
Ответ

Закладки

Опции темы
Опции просмотра

Ваши права в разделе
Вы не можете создавать новые темы
Вы не можете отвечать в темах
Вы не можете прикреплять вложения
Вы не можете редактировать свои сообщения

BB коды Вкл.
Смайлы Вкл.
[IMG] код Вкл.
HTML код Выкл.

Быстрый переход


Часовой пояс GMT, время: 03:59.


Powered by vBulletin® Version 3.8.2
Copyright ©2000 - 2018, Jelsoft Enterprises Ltd. Перевод: zCarot
Rambler's Top100 Республика Татарстан - Каталог сайтов