Все Тут Online
Все Тут Online
Новые сообщения
Все сообщения за последних 24 часа
Расширенный Поиск

   
Меню сайта:
Главная
Форум
Чат
- Online приложения:
- Игры
- Выбор стиля:
- FAQ
- Для начинающих

Вернуться   Все Тут Online > МАГНИТИЗДАТ (Оцифровки Кассет и Бобин) (lossless) > ПОП МУЗЫКА, Eurodance, Disco (Lossless) > Отечественная

Старый 09.08.2018, 16:37   #1
Gukong
Новичок
 

Регистрация: 29.08.2013
Сообщений: 3
Сказал(а) спасибо: 4
Поблагодарили 3 раз(а) в 1 сообщении
Gukong на пути к лучшему
По умолчанию Констанция - Не могу это забыть, 1992 FLAC

Констанция – Не могу это забыть, 1992 (магнитоальбом)+ Виктория Нилова



Носитель: МВ
Год выпуска: 1992
Лэйбл: Студия «ЗВУК»
Аудиокодек:
FLAC (*.flac)
Тип рипа: image+.cue
Битрейт аудио: 24 bit 48000 Hz lossless
FLAC – 512 Мб
Продолжительность: 32:07 + 13:51 - дописка = 45.58
Треклист:
01. Не могу это забыть (2.45)
02. Я приду одна (3.37)
03. Мне очень жаль (4.18)
04. Белый снег (4.18)
05. Интро Студии «ЗВУК» (0.07)
06. Ты говоришь (3.52)
07. Весенний сад (3.56)
08. Мальчишка (5.16)
09. Всё это бред (3.51)
10. Интро Студии «ЗВУК» (0.07)
Дописка:
11. Виктория Нилова – Здравствуй, месяц август (3.56)
12. Виктория Нилова – Да, я люблю тебя (4.00)
13. Виктория Нилова - Зря не теряй эти дни (3.02)
14. Виктория Нилова – Погадай, цыганочка (2.53)
Фонограмма Студии «ЗВУК», 1992
Оцифровка Геннадия Горбунова

P.S. Куй не рабочий. Сам писать их не умею. Может напишет кто-то или исправит существующий.
P.P.S. Файл найден на просторах инета. Качество нормальное, для моих ушей во всяком случае )))

Скрытый текст (вы должны зарегистрироваться или войти под своим логином):
У вас нет прав чтобы видеть скрытый текст, содержащейся здесь.
Gukong вне форума   Ответить с цитированием
3 пользователя(ей) сказали cпасибо:
lesnichij (03.11.2018), саня 444497 (02.11.2018), strelok157 (16.11.2018)
Старый 03.11.2018, 16:21   #2
lesnichij
Новичок
 

Регистрация: 25.03.2013
Адрес: Симферополь
Сообщений: 6
Сказал(а) спасибо: 359
Поблагодарили 3 раз(а) в 2 сообщениях
lesnichij на пути к лучшему
По умолчанию cue-файл

Попсовая музыка в стиле гр. Анжелика, даже песня есть из репертуара этой самой Анжелики - ''Весенний сад''. В общем, сделал cue-файл, самый первый раз.

Констанция 1992 - Не могу это забыть.cue

Код:
REM GENRE Поп
REM DATE 1992
REM COMMENT "Оцифровка - Геннадий Горбунов"
TITLE "Не могу это забыть"
PERFORMER "Констанция"
FILE "Констанция - Не могу это забыть, 1992.flac" WAVE
  TRACK 01 AUDIO
    TITLE "Немогу это забыть"
    PERFORMER "Констанция"
    INDEX 01 00:00:00
  TRACK 02 AUDIO
    TITLE "Я приду одна"
    PERFORMER "Констанция"
    INDEX 01 02:45:67
  TRACK 03 AUDIO
    TITLE "Мне очень жаль"
    PERFORMER "Констанция"
    INDEX 01 06:23:23
  TRACK 04 AUDIO
    TITLE "Белый снег"
    PERFORMER "Констанция"
    INDEX 01 10:41:65
  TRACK 05 AUDIO
    TITLE "Интро Студии Звук"
    PERFORMER "Студия Звук"
    INDEX 01 15:00:57
  TRACK 06 AUDIO
    TITLE "Ты говоришь"
    PERFORMER "Констанция"
    INDEX 01 15:08:17
  TRACK 07 AUDIO
    TITLE "Весенний сад"
    PERFORMER "Констанция"
    INDEX 01 19:00:71
  TRACK 08 AUDIO
    TITLE "Мальчишка"
    PERFORMER "Констанция"
    INDEX 01 22:58:02
  TRACK 09 AUDIO
    TITLE "Всё это бред"
    PERFORMER "Констанция"
    INDEX 01 28:15:05
  TRACK 10 AUDIO
    TITLE "Интро Студии ЗВУК"
    PERFORMER "Студия Звук"
    INDEX 01 32:07:16
  TRACK 11 AUDIO
    TITLE "Здравствуй, месяц август"
    PERFORMER "Виктория Нилова"
    INDEX 01 32:14:39
  TRACK 12 AUDIO
    TITLE "Да, я люблю тебя"
    PERFORMER "Виктория Нилова"
    INDEX 01 36:11:23
  TRACK 13 AUDIO
    TITLE "Зря не теряй эти дни"
    PERFORMER "Виктория Нилова"
    INDEX 01 40:12:21
  TRACK 14 AUDIO
    TITLE "Погадай, цыганочка"
    PERFORMER "Виктория Нилова"
    INDEX 01 43:14:31
lesnichij вне форума   Ответить с цитированием
Ответ

Закладки

Опции темы
Опции просмотра

Ваши права в разделе
Вы не можете создавать новые темы
Вы не можете отвечать в темах
Вы не можете прикреплять вложения
Вы не можете редактировать свои сообщения

BB коды Вкл.
Смайлы Вкл.
[IMG] код Вкл.
HTML код Выкл.

Быстрый переход


Часовой пояс GMT, время: 02:51.


Powered by vBulletin® Version 3.8.2
Copyright ©2000 - 2018, Jelsoft Enterprises Ltd. Перевод: zCarot
Rambler's Top100 Республика Татарстан - Каталог сайтов