Все Тут Online
Все Тут Online
Новые сообщения
Все сообщения за последних 24 часа
Расширенный Поиск

   
Меню сайта:
Главная
Форум
Чат
- Online приложения:
- Игры
- Выбор стиля:
- FAQ
- Для начинающих

Вернуться   Все Тут Online > ОЦИФРОВКИ ВИНИЛА (Lossless) > Оцифровки ВИНИЛА пользователей нашего форума > Оцифровки Борис 63 (Technics SL-1200 MK3D // Victor QL-A7 [Audio-Technica AT440MLa] => Accuphase 200

Старый 10.08.2018, 08:48   #1
Борис 63
Супермодератор. Смотрящий за форумом. Модератор разделов оцифровок.
 
Аватар для Борис 63
 

Регистрация: 01.02.2010
Адрес: СССР Москва
Сообщений: 13,266
Сказал(а) спасибо: 7,119
Поблагодарили 42,716 раз(а) в 6,896 сообщениях
Борис 63 репутация неоспоримаБорис 63 репутация неоспоримаБорис 63 репутация неоспоримаБорис 63 репутация неоспоримаБорис 63 репутация неоспоримаБорис 63 репутация неоспоримаБорис 63 репутация неоспоримаБорис 63 репутация неоспоримаБорис 63 репутация неоспоримаБорис 63 репутация неоспоримаБорис 63 репутация неоспорима
По умолчанию (24/96) Smokie -solid ground-1981 (lossless)










Оцмфровка с пластинки Игоря (Капитан_Воронин)
Спасибо ему.

ссылка


Скрытый текст (вы должны зарегистрироваться или войти под своим логином):
У вас нет прав чтобы видеть скрытый текст, содержащейся здесь.
__________________
Ccылка на тему: Как скачивать с Яндекс диска!

Чтобы быстро скачать чужой опубликованный файл, сохраните его на свой Диск. На вашем Диске файл окажется мгновенно, а свои файлы вы всегда можете скачать без ограничений.
Борис 63 вне форума   Ответить с цитированием
11 пользователя(ей) сказали cпасибо:
ГеннадийС161 (12.08.2018), Бархан (10.08.2018), Дмитрий (10.08.2018), cthutq_1956 (10.08.2018), glot39 (12.08.2018), марьяша (10.08.2018), Никита9988 (12.08.2018), Слава швед (10.08.2018), reiwow (10.08.2018), RostiC (12.08.2018), Unker (12.08.2018)
Старый 10.08.2018, 09:10   #2
cthutq_1956
VIP
 
Аватар для cthutq_1956
 

Регистрация: 17.11.2016
Адрес: Челябинск
Сообщений: 3,377
Сказал(а) спасибо: 5,615
Поблагодарили 1,735 раз(а) в 1,279 сообщениях
cthutq_1956 репутация неоспоримаcthutq_1956 репутация неоспоримаcthutq_1956 репутация неоспоримаcthutq_1956 репутация неоспоримаcthutq_1956 репутация неоспоримаcthutq_1956 репутация неоспоримаcthutq_1956 репутация неоспоримаcthutq_1956 репутация неоспоримаcthutq_1956 репутация неоспоримаcthutq_1956 репутация неоспоримаcthutq_1956 репутация неоспорима
По умолчанию

Спасибо Борис за хорошую музыку и звук
Оцифровка с пластинки Игоря (Капитан_Воронин)
Спасибо ему.

Последний раз редактировалось cthutq_1956; 12.08.2018 в 14:44.
cthutq_1956 вне форума   Ответить с цитированием
2 пользователя(ей) сказали cпасибо:
Борис 63 (10.08.2018), bobrovich (10.08.2018)
Старый 12.08.2018, 14:37   #3
RostiC
Пользователь
 

Регистрация: 04.03.2017
Сообщений: 50
Сказал(а) спасибо: 316
Поблагодарили 37 раз(а) в 26 сообщениях
RostiC - весьма и весьма положительная личностьRostiC - весьма и весьма положительная личность
По умолчанию

Спасибо!
Вот CUE-файл. Надеюсь не ошибся.
========
REM GENRE Hard Rock / Soft Rock
REM DATE 1981
REM LABEL RAK, 1A 064 64502
REM COMMENT "Equipment: 'Victor QL-A7' => AT440MLa => 'Accuphase 200'"
REM COMMENT "Specially for http://vsetutonline.com"
REM COMMENT "Оцифровка - Борис 63 с пластинки Игоря (Капитан_Воронин)"
PERFORMER "Smokey"
TITLE "Solid ground"
FILE "Smokie -solid ground-1981.flac" WAVE
TRACK 01 AUDIO
TITLE "Jet Lagged"
PERFORMER "Smokey"
INDEX 01 00:03:00
TRACK 02 AUDIO
TITLE "I'm in Love With You"
PERFORMER "Smokey"
INDEX 01 03:01:00
TRACK 03 AUDIO
TITLE "Everything a Man Could Need"
PERFORMER "Smokey"
INDEX 01 06:29:00
TRACK 04 AUDIO
TITLE "My Woman Don't Like Rock 'n' Roll"
PERFORMER "Smokey"
INDEX 01 11:42:00
TRACK 05 AUDIO
TITLE "Take Good Care of My Baby"
PERFORMER "Smokey"
INDEX 01 14:02:00
TRACK 06 AUDIO
TITLE "Rock 'n' Roll Woman"
PERFORMER "Smokey"
INDEX 01 17:35:00
TRACK 07 AUDIO
TITLE "Your Love Is So Good for Me"
PERFORMER "Smokey"
INDEX 01 21:52:00
TRACK 08 AUDIO
TITLE "Long Time Coming"
PERFORMER "Smokey"
INDEX 01 25:56:00
TRACK 09 AUDIO
TITLE "Melody Goes On"
PERFORMER "Smokey"
INDEX 01 30:12:00
TRACK 10 AUDIO
TITLE "Songs"
PERFORMER "Smokey"
INDEX 01 32:37:00
RostiC вне форума   Ответить с цитированием
2 пользователя(ей) сказали cпасибо:
ГеннадийС161 (12.08.2018), Борис 63 (12.08.2018)
Старый 12.08.2018, 14:51   #4
cthutq_1956
VIP
 
Аватар для cthutq_1956
 

Регистрация: 17.11.2016
Адрес: Челябинск
Сообщений: 3,377
Сказал(а) спасибо: 5,615
Поблагодарили 1,735 раз(а) в 1,279 сообщениях
cthutq_1956 репутация неоспоримаcthutq_1956 репутация неоспоримаcthutq_1956 репутация неоспоримаcthutq_1956 репутация неоспоримаcthutq_1956 репутация неоспоримаcthutq_1956 репутация неоспоримаcthutq_1956 репутация неоспоримаcthutq_1956 репутация неоспоримаcthutq_1956 репутация неоспоримаcthutq_1956 репутация неоспоримаcthutq_1956 репутация неоспорима
По умолчанию

RostiC, привет сие работает как часики спасибо
cthutq_1956 вне форума   Ответить с цитированием
Пользователь сказал cпасибо:
RostiC (12.08.2018)
Старый 12.08.2018, 15:13   #5
ГеннадийС161
Местный
 

Регистрация: 21.06.2015
Адрес: Ростов-на-Дону
Сообщений: 311
Сказал(а) спасибо: 1,434
Поблагодарили 148 раз(а) в 103 сообщениях
ГеннадийС161 - просто великолепная личностьГеннадийС161 - просто великолепная личностьГеннадийС161 - просто великолепная личностьГеннадийС161 - просто великолепная личностьГеннадийС161 - просто великолепная личностьГеннадийС161 - просто великолепная личностьГеннадийС161 - просто великолепная личность
По умолчанию

Отличный звук, спасибо!
Отдельное спасибо за CUE-файл!
__________________
С уважением, Геннадий.
ГеннадийС161 вне форума   Ответить с цитированием
Пользователь сказал cпасибо:
RostiC (12.08.2018)
Старый 12.08.2018, 15:15   #6
RostiC
Пользователь
 

Регистрация: 04.03.2017
Сообщений: 50
Сказал(а) спасибо: 316
Поблагодарили 37 раз(а) в 26 сообщениях
RostiC - весьма и весьма положительная личностьRostiC - весьма и весьма положительная личность
По умолчанию

Цитата:
Сообщение от cthutq_1956 Посмотреть сообщение
RostiC, привет сие работает как часики спасибо
Пожалуйста!
RostiC вне форума   Ответить с цитированием
Ответ

Закладки

Опции темы
Опции просмотра

Ваши права в разделе
Вы не можете создавать новые темы
Вы не можете отвечать в темах
Вы не можете прикреплять вложения
Вы не можете редактировать свои сообщения

BB коды Вкл.
Смайлы Вкл.
[IMG] код Вкл.
HTML код Выкл.

Быстрый переход


Часовой пояс GMT, время: 10:37.


Powered by vBulletin® Version 3.8.2
Copyright ©2000 - 2018, Jelsoft Enterprises Ltd. Перевод: zCarot
Rambler's Top100 Республика Татарстан - Каталог сайтов