Все Тут Online
Все Тут Online
Новые сообщения
Все сообщения за последних 24 часа
Расширенный Поиск

   
Меню сайта:
Главная
Форум
Чат
- Online приложения:
- Игры
- Выбор стиля:
- FAQ
- Для начинающих

Вернуться   Все Тут Online > МАГНИТИЗДАТ (Оцифровки Кассет и Бобин) (lossless) > РОК МУЗЫКА (Lossless) > Отечественная

Старый 10.08.2018, 09:39   #1
Капитан_Воронин
Команда
 

Регистрация: 03.07.2011
Сообщений: 388
Сказал(а) спасибо: 9
Поблагодарили 848 раз(а) в 240 сообщениях
Капитан_Воронин репутация неоспоримаКапитан_Воронин репутация неоспоримаКапитан_Воронин репутация неоспоримаКапитан_Воронин репутация неоспоримаКапитан_Воронин репутация неоспоримаКапитан_Воронин репутация неоспоримаКапитан_Воронин репутация неоспоримаКапитан_Воронин репутация неоспоримаКапитан_Воронин репутация неоспоримаКапитан_Воронин репутация неоспоримаКапитан_Воронин репутация неоспорима
По умолчанию ВИА Земляне - Концерт 1983г.

Магнитофон brAun С3
Программа WaveLab

Земляне - Концерт 1983г.




Сторона А:

1. Старый город
2. Взлетная полоса
3. Представь себе. (Любимая)
4. Каскадеры
5. Инструментал
6. Лунапарк
7. Кораблик.
8. Мы - Люди
9. Цейрон №5.
10. Прости, Земля (не до конца)

Скрытый текст (вы должны зарегистрироваться или войти под своим логином):
У вас нет прав чтобы видеть скрытый текст, содержащейся здесь.

Сторона В:

1. Прости, Земля
2. А жизнь идет
3. Крепче держись
4. Поверь в мечту
5. Трава у дома. (не до конца)

PS:
6. Кто Вы?
7. Дай силы
8. Зову тебя
9. Эдельвейс
10. Карате
11. Все поправимо кроме зла

Скрытый текст (вы должны зарегистрироваться или войти под своим логином):
У вас нет прав чтобы видеть скрытый текст, содержащейся здесь.





«Земляне» (под управлением В. Киселёва) - советская и российская рок-группа, один из самых заметных коллективов периода «ВИА» в советской музыке, привнесших элементы рок-музыки на советскую эстраду.
История этого коллектива начинается в 1969 году. Тогда еще, правда, название его было другим – "Апрель". Сначала в их репертуаре были лишь англоязычные песни.
Свое нынешнее название музыканты обрели в конце 1970-х. Музыканты получили признание после того, как начали исполнять композиции на родном языке. В 1979 году Земляне записали песню "Красный конь" Марка Фрадкина.
Широко известной группа стала лишь в 1980 году благодаря исполнению песен типа «Каскадеры», «Маленький кораблик», «Каратэ» и многих других.
Популярность группы возросла еще больше, когда в 1982 году они исполнили песню Л. Дербенева и В. Добрынина "Прости, Земля".
Группа использовала на своих концертах множество пиротехнических и светотехнических эффектов, арт- и хардроковые аранжировки, форсированное звучание. Да и сам имидж участников группы напоминал жителям Советского Союза зарубежных рокеров 1970 годов.
Группа не очень разборчива в выборе репертуара и была готова включать в него эстрадные шлягеры для того, чтобы потом записать их па пластинку с известными композиторами (в частности — с В. Мигулей, А. Морозовым или Ю. Антоновым). Первое время поклонники «Землян» не придавали этому очень большого значения, тем более что на концертах группа звучала значительно тяжелее, но с появлением и выходом на всесоюзную орбиту более интересных металлических групп типа «Арии» или «Круиза» звезда «3емлян» стала постепенно закатываться.

Капитан_Воронин вне форума   Ответить с цитированием
17 пользователя(ей) сказали cпасибо:
Бархан (10.08.2018), Дмитрий (06.09.2018), Erg Noor (11.08.2018), Круиз (15.08.2018), FLHTYFKBY (10.08.2018), gnrtbc (12.08.2018), подводник (15.08.2018), ledcom (14.08.2018), Саша (beloborod) (10.08.2018), фёдор1969 (10.08.2018), pchu (10.08.2018), Rocker 2015 (11.08.2018), serzhpt513 (05.09.2018), sos (10.08.2018), suede69 (10.08.2018), Yury_T (12.08.2018), Юбилейный (08.09.2018)
Старый 05.09.2018, 17:15   #2
KYL
Новичок
 

Регистрация: 13.04.2018
Адрес: Москва
Сообщений: 5
Сказал(а) спасибо: 3
Поблагодарили 1 раз в 1 сообщении
KYL на пути к лучшему
По умолчанию

Капитан_Воронин, это разные группы

https://web.archive.org/web/20120619...su/burlaka.htm

А "благодаря" киселёву, появилось это "чудо" ....
KYL вне форума   Ответить с цитированием
Старый 07.09.2018, 14:35   #3
Капитан_Воронин
Команда
 

Регистрация: 03.07.2011
Сообщений: 388
Сказал(а) спасибо: 9
Поблагодарили 848 раз(а) в 240 сообщениях
Капитан_Воронин репутация неоспоримаКапитан_Воронин репутация неоспоримаКапитан_Воронин репутация неоспоримаКапитан_Воронин репутация неоспоримаКапитан_Воронин репутация неоспоримаКапитан_Воронин репутация неоспоримаКапитан_Воронин репутация неоспоримаКапитан_Воронин репутация неоспоримаКапитан_Воронин репутация неоспоримаКапитан_Воронин репутация неоспоримаКапитан_Воронин репутация неоспорима
По умолчанию

Эт как посмотреть...
Капитан_Воронин вне форума   Ответить с цитированием
Старый 20.09.2018, 10:52   #4
Rocker 2015
Пользователь
 

Регистрация: 05.07.2015
Сообщений: 65
Сказал(а) спасибо: 417
Поблагодарили 1 раз в 1 сообщении
Rocker 2015 на пути к лучшему
По умолчанию

Большое спасибо!!!! Добавьте пожалуйста cue файл.
Rocker 2015 вне форума   Ответить с цитированием
Старый 13.11.2018, 15:58   #5
Дмитрий
Music Group
 
Аватар для Дмитрий
 

Регистрация: 12.12.2008
Адрес: Москва прошлого тысячелетия.
Сообщений: 111,272
Сказал(а) спасибо: 27,135
Поблагодарили 120,666 раз(а) в 46,199 сообщениях
Дмитрий репутация неоспоримаДмитрий репутация неоспоримаДмитрий репутация неоспоримаДмитрий репутация неоспоримаДмитрий репутация неоспоримаДмитрий репутация неоспоримаДмитрий репутация неоспоримаДмитрий репутация неоспоримаДмитрий репутация неоспоримаДмитрий репутация неоспоримаДмитрий репутация неоспорима
Отправить сообщение для Дмитрий с помощью Skype™
По умолчанию

Код:
REM GENRE "Рок"
REM DATE 1983
REM COMMENT "Оцифровка - Капитан Воронин"
TITLE "Концерт"
PERFORMER "Земляне"
FILE "Земляне 83 - Концерт часть 1_отпр.wav" WAVE
  TRACK 01 AUDIO
TITLE "Старый город"
PERFORMER "Земляне"
    INDEX 01 00:04:41
  TRACK 02 AUDIO
TITLE "Взлетная полоса"
PERFORMER "Земляне"
    INDEX 01 05:26:55
  TRACK 03 AUDIO
TITLE "Представь себе. (Любимая)"
PERFORMER "Земляне"
    INDEX 01 10:22:11
  TRACK 04 AUDIO
TITLE "Каскадеры"
PERFORMER "Земляне"
    INDEX 01 13:51:45
  TRACK 05 AUDIO
TITLE "Инструментал"
PERFORMER "Земляне"
    INDEX 01 17:44:23
  TRACK 06 AUDIO
TITLE "Лунапарк"
PERFORMER "Земляне"
    INDEX 01 24:11:66
  TRACK 07 AUDIO
TITLE "Кораблик"
PERFORMER "Земляне"
    INDEX 01 29:05:59
  TRACK 08 AUDIO
TITLE "Мы - Люди"
PERFORMER "Земляне"
    INDEX 01 34:12:65
  TRACK 09 AUDIO
TITLE "Цейрон №5"
PERFORMER "Земляне"
    INDEX 01 40:28:69
  TRACK 10 AUDIO
TITLE "Прости, Земля (не до конца)"
PERFORMER "Земляне"
    INDEX 01 44:29:31
FILE "Земляне 83 - Концерт часть 2_отпр.wav" WAVE
  TRACK 11 AUDIO
TITLE "Прости, Земля"
PERFORMER "Земляне"
    INDEX 01 00:07:15
  TRACK 12 AUDIO
TITLE "А жизнь идет"
PERFORMER "Земляне"
    INDEX 01 05:01:44
  TRACK 13 AUDIO
TITLE "Крепче держись"
PERFORMER "Земляне"
    INDEX 01 10:38:21
  TRACK 14 AUDIO
TITLE "Поверь в мечту"
PERFORMER "Земляне"
    INDEX 01 15:27:70
  TRACK 15 AUDIO
TITLE "Трава у дома. (не до конца)"
PERFORMER "Земляне"
    INDEX 01 19:37:42
  TRACK 16 AUDIO
TITLE "Кто Вы?"
PERFORMER "Земляне"
    INDEX 01 24:39:16
  TRACK 17 AUDIO
TITLE "Дай силы"
PERFORMER "Земляне"
    INDEX 01 26:52:63
  TRACK 18 AUDIO
TITLE "Зову тебя"
PERFORMER "Земляне"
    INDEX 01 30:52:60
  TRACK 19 AUDIO
TITLE "Эдельвейс"
PERFORMER "Земляне"
    INDEX 01 34:40:09
  TRACK 20 AUDIO
TITLE "Карате"
PERFORMER "Земляне"
    INDEX 01 40:10:50
  TRACK 21 AUDIO
TITLE "Все поправимо кроме зла"
PERFORMER "Земляне"
    INDEX 01 42:18:34
  TRACK 22 AUDIO
TITLE ""
PERFORMER ""
    INDEX 01 45:20:18
__________________












Ccылка на тему: Как скачивать с Яндекс диска!

Чтобы быстро скачать чужой опубликованный файл, сохраните его на свой Диск. На вашем Диске файл окажется мгновенно, а свои файлы вы всегда можете скачать без ограничений. Для этого нужно пройти регистрацию на https://mail.yandex.ru/

Уж лучше голодать, чем что попало есть... И лучше одному, чем вместе с кем попало.

Не работают ссылки, не надо флудить в теме. Сообщите ЗДЕСЬ!




Скачал и не оставил комментарий - понизил релизёру мотивацию делиться с окружающими!

Команда Все Тут желает Вам приятного прослушивания!



Дмитрий вне форума   Ответить с цитированием
2 пользователя(ей) сказали cпасибо:
Круиз (13.11.2018), Феликс (16.11.2018)
Ответ

Закладки

Опции темы
Опции просмотра

Ваши права в разделе
Вы не можете создавать новые темы
Вы не можете отвечать в темах
Вы не можете прикреплять вложения
Вы не можете редактировать свои сообщения

BB коды Вкл.
Смайлы Вкл.
[IMG] код Вкл.
HTML код Выкл.

Быстрый переход


Часовой пояс GMT, время: 19:22.


Powered by vBulletin® Version 3.8.2
Copyright ©2000 - 2018, Jelsoft Enterprises Ltd. Перевод: zCarot
Rambler's Top100 Республика Татарстан - Каталог сайтов