Все Тут Online
Все Тут Online
Новые сообщения
Все сообщения за последних 24 часа
Расширенный Поиск

   
Меню сайта:
Главная
Форум
Чат
- Online приложения:
- Игры
- Выбор стиля:
- FAQ
- Для начинающих

Вернуться   Все Тут Online > ОЦИФРОВКИ ВИНИЛА (Lossless) > Оцифровки ВИНИЛА пользователей нашего форума > Оцифровки Борис 63 (Technics SL-1200 MK3D // Victor QL-A7 [Audio-Technica AT440MLa] => Accuphase 200

Старый 10.08.2018, 10:02   #1
Борис 63
Супермодератор. Смотрящий за форумом. Модератор разделов оцифровок.
 
Аватар для Борис 63
 

Регистрация: 01.02.2010
Адрес: СССР Москва
Сообщений: 13,601
Сказал(а) спасибо: 7,572
Поблагодарили 44,425 раз(а) в 7,162 сообщениях
Борис 63 репутация неоспоримаБорис 63 репутация неоспоримаБорис 63 репутация неоспоримаБорис 63 репутация неоспоримаБорис 63 репутация неоспоримаБорис 63 репутация неоспоримаБорис 63 репутация неоспоримаБорис 63 репутация неоспоримаБорис 63 репутация неоспоримаБорис 63 репутация неоспоримаБорис 63 репутация неоспорима
По умолчанию (24/96) Smokie -the other side of the road- 1979 (lossless)










Оцифровка с пластинки Игоря (Капитан_Воронин)
Спасибо ему.

ссылка


Скрытый текст (вы должны зарегистрироваться или войти под своим логином):
У вас нет прав чтобы видеть скрытый текст, содержащейся здесь.
__________________
Ccылка на тему: Как скачивать с Яндекс диска!

Чтобы быстро скачать чужой опубликованный файл, сохраните его на свой Диск. На вашем Диске файл окажется мгновенно, а свои файлы вы всегда можете скачать без ограничений.
Борис 63 вне форума   Ответить с цитированием
12 пользователя(ей) сказали cпасибо:
Бархан (10.08.2018), александр69 (10.08.2018), cthutq_1956 (10.08.2018), glot39 (10.08.2018), марьяша (10.08.2018), ibresih (08.09.2018), Никита9988 (12.08.2018), Igor64 (21.08.2018), kud (14.08.2018), ТОМ (10.08.2018), reiwow (10.08.2018), RostiC (12.08.2018)
Старый 10.08.2018, 10:21   #2
cthutq_1956
VIP
 
Аватар для cthutq_1956
 

Регистрация: 17.11.2016
Адрес: Челябинск
Сообщений: 3,430
Сказал(а) спасибо: 5,876
Поблагодарили 1,826 раз(а) в 1,363 сообщениях
cthutq_1956 репутация неоспоримаcthutq_1956 репутация неоспоримаcthutq_1956 репутация неоспоримаcthutq_1956 репутация неоспоримаcthutq_1956 репутация неоспоримаcthutq_1956 репутация неоспоримаcthutq_1956 репутация неоспоримаcthutq_1956 репутация неоспоримаcthutq_1956 репутация неоспоримаcthutq_1956 репутация неоспоримаcthutq_1956 репутация неоспорима
По умолчанию

Спасибо за труды и звук
cthutq_1956 вне форума   Ответить с цитированием
Старый 13.08.2018, 16:40   #3
RostiC
Пользователь
 

Регистрация: 04.03.2017
Сообщений: 60
Сказал(а) спасибо: 358
Поблагодарили 49 раз(а) в 32 сообщениях
RostiC как роза среди колючекRostiC как роза среди колючекRostiC как роза среди колючек
По умолчанию

Спасибо!
Здесь CUE-файл.
==========
REM GENRE Hard Rock / Soft Rock
REM DATE 1979
REM LABEL RAK, 1C 074-63 337, Germany
REM COMMENT "Equipment: 'Victor QL-A7' => AT440MLa => 'Accuphase 200'"
REM COMMENT "Specially for http://vsetutonline.com"
REM COMMENT "Оцифровка - Борис 63 с пластинки Игоря (Капитан_Воронин)"
PERFORMER "Smokey"
TITLE "The other side of the road"
FILE "Smokie -the other side of the road- 1979.flac" WAVE
TRACK 01 AUDIO
TITLE "The Other Side Of The Road"
PERFORMER "Smokey"
INDEX 01 00:03:00
TRACK 02 AUDIO
TITLE "Do To Me"
PERFORMER "Smokey"
INDEX 01 03:56:00
TRACK 03 AUDIO
TITLE "Belinda"
PERFORMER "Smokey"
INDEX 01 07:18:00
TRACK 04 AUDIO
TITLE "Big Fat Momma"
PERFORMER "Smokey"
INDEX 01 10:20:00
TRACK 05 AUDIO
TITLE "Don't Take Your Love Away This Time"
PERFORMER "Smokey"
INDEX 01 13:06:00
TRACK 06 AUDIO
TITLE "London Is Burning"
PERFORMER "Smokey"
INDEX 01 16:23:00
TRACK 07 AUDIO
TITLE "Babe It's Up To You"
PERFORMER "Smokey"
INDEX 01 21:39:00
TRACK 08 AUDIO
TITLE "You Don't Care"
PERFORMER "Smokey"
INDEX 01 25:24:00
TRACK 09 AUDIO
TITLE "All Alone"
PERFORMER "Smokey"
INDEX 01 28:45:00
TRACK 10 AUDIO
TITLE "I Can't Stop Loving You"
PERFORMER "Smokey"
INDEX 01 32:42:00
TRACK 11 AUDIO
TITLE "Too Many Pennies In Hell"
PERFORMER "Smokey"
INDEX 01 36:19:00
TRACK 12 AUDIO
TITLE "Samantha Elizabeth"
PERFORMER "Smokey"
INDEX 01 37:36:00
TRACK 13 AUDIO
TITLE "San Francisco Bay"
PERFORMER "Smokey"
INDEX 01 41:36:50
RostiC вне форума   Ответить с цитированием
Пользователь сказал cпасибо:
Борис 63 (13.08.2018)
Ответ

Закладки

Опции темы
Опции просмотра

Ваши права в разделе
Вы не можете создавать новые темы
Вы не можете отвечать в темах
Вы не можете прикреплять вложения
Вы не можете редактировать свои сообщения

BB коды Вкл.
Смайлы Вкл.
[IMG] код Вкл.
HTML код Выкл.

Быстрый переход


Часовой пояс GMT, время: 03:43.


Powered by vBulletin® Version 3.8.2
Copyright ©2000 - 2018, Jelsoft Enterprises Ltd. Перевод: zCarot
Rambler's Top100 Республика Татарстан - Каталог сайтов