Все Тут Online
Все Тут Online
Новые сообщения
Все сообщения за последних 24 часа
Расширенный Поиск

   
Меню сайта:
Главная
Форум
Чат
- Online приложения:
- Игры
- Выбор стиля:
- FAQ
- Для начинающих

Вернуться   Все Тут Online > ОЦИФРОВКИ ВИНИЛА (Lossless) > Оцифровки ВИНИЛА пользователей нашего форума > Оцифровки Борис 63 (Technics SL-1200 MK3D // Victor QL-A7 [Audio-Technica AT440MLa] => Accuphase 200

Старый 10.08.2018, 12:36   #1
Борис 63
Супермодератор. Смотрящий за форумом. Модератор разделов оцифровок.
 
Аватар для Борис 63
 

Регистрация: 01.02.2010
Адрес: СССР Москва
Сообщений: 13,601
Сказал(а) спасибо: 7,572
Поблагодарили 44,425 раз(а) в 7,162 сообщениях
Борис 63 репутация неоспоримаБорис 63 репутация неоспоримаБорис 63 репутация неоспоримаБорис 63 репутация неоспоримаБорис 63 репутация неоспоримаБорис 63 репутация неоспоримаБорис 63 репутация неоспоримаБорис 63 репутация неоспоримаБорис 63 репутация неоспоримаБорис 63 репутация неоспоримаБорис 63 репутация неоспорима
По умолчанию (24/96) Smokie -the very best of- (lossless)










Оцифровка с пластинки Игоря (Капитан_Воронин)
Спасибо ему.

Ссылка


Скрытый текст (вы должны зарегистрироваться или войти под своим логином):
У вас нет прав чтобы видеть скрытый текст, содержащейся здесь.
__________________
Ccылка на тему: Как скачивать с Яндекс диска!

Чтобы быстро скачать чужой опубликованный файл, сохраните его на свой Диск. На вашем Диске файл окажется мгновенно, а свои файлы вы всегда можете скачать без ограничений.
Борис 63 вне форума   Ответить с цитированием
11 пользователя(ей) сказали cпасибо:
ДенисПоПов27 (11.08.2018), Васили (15.09.2018), александр69 (10.08.2018), cthutq_1956 (10.08.2018), DeD (10.08.2018), glot39 (10.08.2018), GNUS59 (14.08.2018), Никита9988 (12.08.2018), Igor64 (21.08.2018), reiwow (10.08.2018), RostiC (12.08.2018)
Старый 11.08.2018, 06:02   #2
ДенисПоПов27
VIP
 

Регистрация: 29.03.2011
Сообщений: 3,135
Сказал(а) спасибо: 5,175
Поблагодарили 1,707 раз(а) в 1,040 сообщениях
ДенисПоПов27 репутация неоспоримаДенисПоПов27 репутация неоспоримаДенисПоПов27 репутация неоспоримаДенисПоПов27 репутация неоспоримаДенисПоПов27 репутация неоспоримаДенисПоПов27 репутация неоспоримаДенисПоПов27 репутация неоспоримаДенисПоПов27 репутация неоспоримаДенисПоПов27 репутация неоспоримаДенисПоПов27 репутация неоспоримаДенисПоПов27 репутация неоспорима
По умолчанию

Класс!!!
ДенисПоПов27 вне форума   Ответить с цитированием
Старый 14.08.2018, 15:39   #3
RostiC
Пользователь
 

Регистрация: 04.03.2017
Сообщений: 60
Сказал(а) спасибо: 358
Поблагодарили 49 раз(а) в 32 сообщениях
RostiC как роза среди колючекRostiC как роза среди колючекRostiC как роза среди колючек
По умолчанию

Спасибо! Хороший звук, жаль, что песочек шуршит.
Вот CUE, надеюсь, не ошибся.
===========
REM GENRE Hard Rock / Soft Rock
REM DATE 1980
REM LABEL RAK, SRAK 540, GT Britain
REM COMMENT "Equipment: 'Victor QL-A7' => AT440MLa => 'Accuphase 200'"
REM COMMENT "Specially for http://vsetutonline.com"
REM COMMENT "Оцифровка - Борис 63 с пластинки Игоря (Капитан_Воронин)"
PERFORMER "Smokey"
TITLE "The very best of-"
FILE "Smokie -the very best of-.flac" WAVE
TRACK 01 AUDIO
TITLE "Oh Carol '1978"
PERFORMER "Smokey"
INDEX 01 00:04:00
TRACK 02 AUDIO
TITLE "Living Next Door To Alice '1976"
PERFORMER "Smokey"
INDEX 01 03:22:00
TRACK 03 AUDIO
TITLE "It's Your Life '1977"
PERFORMER "Smokey"
INDEX 01 06:53:00
TRACK 04 AUDIO
TITLE "If You Think You Know How To Love Me '1975"
PERFORMER "Smokey"
INDEX 01 10:30:00
TRACK 05 AUDIO
TITLE "For A Few Dollars More '1978"
PERFORMER "Smokey"
INDEX 01 13:57:00
TRACK 06 AUDIO
TITLE "Lay Back In The Arms Of Someone '1977"
PERFORMER "Smokey"
INDEX 01 17:34:00
TRACK 07 AUDIO
TITLE "Don't Play Your Rock'n Roll To Me '1975"
PERFORMER "Smokey"
INDEX 01 21:44:50
TRACK 08 AUDIO
TITLE "Something's Been Making Me Blue '1976"
PERFORMER "Smokey"
INDEX 01 25:08:00
TRACK 09 AUDIO
TITLE "Needles And Pins '1977"
PERFORMER "Smokey"
INDEX 01 28:10:50
TRACK 10 AUDIO
TITLE "Mexican Girl '1978"
PERFORMER "Smokey"
INDEX 01 30:58:00
TRACK 11 AUDIO
TITLE "Wild Wild Angels '1976"
PERFORMER "Smokey"
INDEX 01 34:36:00
TRACK 12 AUDIO
TITLE "Run To Me '1980"
PERFORMER "Smokey"
INDEX 01 38:37:00
TRACK 13 AUDIO
TITLE "I'll Meet You At Midnight '1976"
PERFORMER "Smokey"
INDEX 01 42:48:00
TRACK 14 AUDIO
TITLE "Take Good Care Of My Baby '1980"
PERFORMER "Smokey"
INDEX 01 46:06:00
RostiC вне форума   Ответить с цитированием
2 пользователя(ей) сказали cпасибо:
Васили (15.09.2018), Борис 63 (14.08.2018)
Ответ

Закладки

Опции темы
Опции просмотра

Ваши права в разделе
Вы не можете создавать новые темы
Вы не можете отвечать в темах
Вы не можете прикреплять вложения
Вы не можете редактировать свои сообщения

BB коды Вкл.
Смайлы Вкл.
[IMG] код Вкл.
HTML код Выкл.

Быстрый переход


Часовой пояс GMT, время: 03:43.


Powered by vBulletin® Version 3.8.2
Copyright ©2000 - 2018, Jelsoft Enterprises Ltd. Перевод: zCarot
Rambler's Top100 Республика Татарстан - Каталог сайтов