Все Тут Online
Все Тут Online
Новые сообщения
Все сообщения за последних 24 часа
Расширенный Поиск

   
Меню сайта:
Главная
Форум
Чат
- Online приложения:
- Игры
- Выбор стиля:
- FAQ
- Для начинающих

Вернуться   Все Тут Online > ОЦИФРОВКИ ВИНИЛА (Lossless) > Оцифровки ВИНИЛА пользователей нашего форума > В гостях у Вячеслава (ник bobrovich) > Раздел собственных оцифровок с винила

Ответ
 
Опции темы Опции просмотра
Старый 11.07.2018, 10:44   #1
bobrovich
Модератор
 

Регистрация: 27.09.2015
Сообщений: 2,489
Сказал(а) спасибо: 1,688
Поблагодарили 3,123 раз(а) в 1,531 сообщениях
bobrovich репутация неоспоримаbobrovich репутация неоспоримаbobrovich репутация неоспоримаbobrovich репутация неоспоримаbobrovich репутация неоспоримаbobrovich репутация неоспоримаbobrovich репутация неоспоримаbobrovich репутация неоспоримаbobrovich репутация неоспоримаbobrovich репутация неоспоримаbobrovich репутация неоспорима
По умолчанию SCORPIONS - 1996. (ПЕРЕОЦИФРОВКА С ДРУГОГО (ЧЕРНОГО) ВИНИЛА

Часть 1
Часть 2
bobrovich вне форума   Ответить с цитированием
6 пользователя(ей) сказали cпасибо:
ДенисПоПов27 (11.07.2018), glot39 (11.07.2018), марьяша (11.07.2018), ТОМ (14.07.2018), RostiC (11.07.2018), uheep (11.07.2018)
Старый 11.07.2018, 10:44   #2
bobrovich
Модератор
 

Регистрация: 27.09.2015
Сообщений: 2,489
Сказал(а) спасибо: 1,688
Поблагодарили 3,123 раз(а) в 1,531 сообщениях
bobrovich репутация неоспоримаbobrovich репутация неоспоримаbobrovich репутация неоспоримаbobrovich репутация неоспоримаbobrovich репутация неоспоримаbobrovich репутация неоспоримаbobrovich репутация неоспоримаbobrovich репутация неоспоримаbobrovich репутация неоспоримаbobrovich репутация неоспоримаbobrovich репутация неоспорима
По умолчанию

A1 Wild Child
A2 But The Best For You
A3 Does Anyone Know
A4 Stone In My Shoe
A5 Soul Behind The Face
A6 Oh Girl (I Wanna Be With You)
B1 When You Came Into My Life
B2 Where The River Flows
B3 Time Will Call Your Name
B4 You And I
B5 Are You The One?
bobrovich вне форума   Ответить с цитированием
4 пользователя(ей) сказали cпасибо:
ДенисПоПов27 (11.07.2018), glot39 (11.07.2018), ТОМ (14.07.2018), RostiC (11.07.2018)
Старый 11.07.2018, 10:45   #3
bobrovich
Модератор
 

Регистрация: 27.09.2015
Сообщений: 2,489
Сказал(а) спасибо: 1,688
Поблагодарили 3,123 раз(а) в 1,531 сообщениях
bobrovich репутация неоспоримаbobrovich репутация неоспоримаbobrovich репутация неоспоримаbobrovich репутация неоспоримаbobrovich репутация неоспоримаbobrovich репутация неоспоримаbobrovich репутация неоспоримаbobrovich репутация неоспоримаbobrovich репутация неоспоримаbobrovich репутация неоспоримаbobrovich репутация неоспорима
По умолчанию

Фото обложек в архивах.
bobrovich вне форума   Ответить с цитированием
2 пользователя(ей) сказали cпасибо:
glot39 (11.07.2018), uheep (11.07.2018)
Старый 11.07.2018, 16:36   #4
RostiC
Пользователь
 

Регистрация: 04.03.2017
Сообщений: 62
Сказал(а) спасибо: 389
Поблагодарили 50 раз(а) в 32 сообщениях
RostiC как роза среди колючекRostiC как роза среди колючекRostiC как роза среди колючек
По умолчанию

Спасибо!
А фото большего размера нет?
Эти 300х300.
RostiC вне форума   Ответить с цитированием
Старый 11.07.2018, 16:38   #5
bobrovich
Модератор
 

Регистрация: 27.09.2015
Сообщений: 2,489
Сказал(а) спасибо: 1,688
Поблагодарили 3,123 раз(а) в 1,531 сообщениях
bobrovich репутация неоспоримаbobrovich репутация неоспоримаbobrovich репутация неоспоримаbobrovich репутация неоспоримаbobrovich репутация неоспоримаbobrovich репутация неоспоримаbobrovich репутация неоспоримаbobrovich репутация неоспоримаbobrovich репутация неоспоримаbobrovich репутация неоспоримаbobrovich репутация неоспорима
По умолчанию

Пока нет
bobrovich вне форума   Ответить с цитированием
Пользователь сказал cпасибо:
RostiC (11.07.2018)
Старый 11.07.2018, 17:11   #6
RostiC
Пользователь
 

Регистрация: 04.03.2017
Сообщений: 62
Сказал(а) спасибо: 389
Поблагодарили 50 раз(а) в 32 сообщениях
RostiC как роза среди колючекRostiC как роза среди колючекRostiC как роза среди колючек
По умолчанию

Вот CUE-файл для желающих. Переименовал исходный Wav в "Scorpions.wav". Исправил ошибку. Теперь сдесь уже поправленный вариант (20.07):

REM GENRE "Rock"
REM DATE 1996
REM COMMENT "Оцифровка - bobrovich"
TITLE "Pure Instinct"
PERFORMER "SCORPIONS"
FILE "Scorpions.flac" WAVE
TRACK 01 AUDIO
TITLE "Wild Child"
PERFORMER "SCORPIONS"
INDEX 01 00:02:30
TRACK 02 AUDIO
TITLE "But The Best For You"
PERFORMER "SCORPIONS"
INDEX 01 04:19:20
TRACK 03 AUDIO
TITLE "Does Anyone Know"
PERFORMER "SCORPIONS"
INDEX 01 09:39:22
TRACK 04 AUDIO
TITLE "Stone In My Shoe"
PERFORMER "SCORPIONS"
INDEX 01 15:36:51
TRACK 05 AUDIO
TITLE "Soul Behind The Face"
PERFORMER "SCORPIONS"
INDEX 01 20:15:44
TRACK 06 AUDIO
TITLE "Oh Girl (I Wanna Be With You)"
PERFORMER "SCORPIONS"
INDEX 01 24:15:31
TRACK 07 AUDIO
TITLE "When You Came Into My Life"
PERFORMER "SCORPIONS"
INDEX 01 28:04:21
TRACK 08 AUDIO
TITLE "Where The River Flows"
PERFORMER "SCORPIONS"
INDEX 01 33:18:08
TRACK 09 AUDIO
TITLE "Time Will Call Your Name"
PERFORMER "SCORPIONS"
INDEX 01 37:29:23
TRACK 10 AUDIO
TITLE "You And I"
PERFORMER "SCORPIONS"
INDEX 01 40:54:30
TRACK 11 AUDIO
TITLE "Are You The One?"
PERFORMER "SCORPIONS"
INDEX 01 47:09:07

Последний раз редактировалось RostiC; 20.07.2018 в 17:07.
RostiC вне форума   Ответить с цитированием
Пользователь сказал cпасибо:
bobrovich (11.07.2018)
Старый 11.07.2018, 20:29   #7
uheep
Новичок
 

Регистрация: 05.07.2018
Сообщений: 8
Сказал(а) спасибо: 3
Поблагодарили 2 раз(а) в 1 сообщении
uheep на пути к лучшему
По умолчанию

не извлекается.
пишет - архив поврежден или имеет неизвестный формат.
uheep вне форума   Ответить с цитированием
Старый 11.07.2018, 20:50   #8
bobrovich
Модератор
 

Регистрация: 27.09.2015
Сообщений: 2,489
Сказал(а) спасибо: 1,688
Поблагодарили 3,123 раз(а) в 1,531 сообщениях
bobrovich репутация неоспоримаbobrovich репутация неоспоримаbobrovich репутация неоспоримаbobrovich репутация неоспоримаbobrovich репутация неоспоримаbobrovich репутация неоспоримаbobrovich репутация неоспоримаbobrovich репутация неоспоримаbobrovich репутация неоспоримаbobrovich репутация неоспоримаbobrovich репутация неоспорима
По умолчанию

Все нормально открывается, обновите WINrar
bobrovich вне форума   Ответить с цитированием
Старый 11.07.2018, 21:15   #9
uheep
Новичок
 

Регистрация: 05.07.2018
Сообщений: 8
Сказал(а) спасибо: 3
Поблагодарили 2 раз(а) в 1 сообщении
uheep на пути к лучшему
По умолчанию

распаковал.
забыл про 7 зип.
пардон за беспокойство))
uheep вне форума   Ответить с цитированием
Старый 11.07.2018, 21:26   #10
bobrovich
Модератор
 

Регистрация: 27.09.2015
Сообщений: 2,489
Сказал(а) спасибо: 1,688
Поблагодарили 3,123 раз(а) в 1,531 сообщениях
bobrovich репутация неоспоримаbobrovich репутация неоспоримаbobrovich репутация неоспоримаbobrovich репутация неоспоримаbobrovich репутация неоспоримаbobrovich репутация неоспоримаbobrovich репутация неоспоримаbobrovich репутация неоспоримаbobrovich репутация неоспоримаbobrovich репутация неоспоримаbobrovich репутация неоспорима
По умолчанию

ничего страшного
bobrovich вне форума   Ответить с цитированием
Ответ

Закладки

Опции темы
Опции просмотра

Ваши права в разделе
Вы не можете создавать новые темы
Вы не можете отвечать в темах
Вы не можете прикреплять вложения
Вы не можете редактировать свои сообщения

BB коды Вкл.
Смайлы Вкл.
[IMG] код Вкл.
HTML код Выкл.

Быстрый переход


Часовой пояс GMT, время: 02:44.


Powered by vBulletin® Version 3.8.2
Copyright ©2000 - 2018, Jelsoft Enterprises Ltd. Перевод: zCarot
Rambler's Top100 Республика Татарстан - Каталог сайтов