Все Тут Online
Все Тут Online
Новые сообщения
Все сообщения за последних 24 часа
Расширенный Поиск

   
Меню сайта:
Главная
Форум
Чат
- Online приложения:
- Игры
- Выбор стиля:
- FAQ
- Для начинающих

Вернуться   Все Тут Online > ОЦИФРОВКИ ВИНИЛА (Lossless) > Оцифровки ВИНИЛА пользователей нашего форума > Оцифровки Gitarist (WEGA JPS 350 P // Sony TA-AX2 // Akai GX-630DB // Pio CT-S640S => EE-MU EM8730)

Старый 26.06.2018, 03:59   #1
gitarist
VIP
 
Аватар для gitarist
 

Регистрация: 14.10.2010
Адрес: СССР
Сообщений: 1,051
Сказал(а) спасибо: 979
Поблагодарили 5,127 раз(а) в 765 сообщениях
gitarist репутация неоспоримаgitarist репутация неоспоримаgitarist репутация неоспоримаgitarist репутация неоспоримаgitarist репутация неоспоримаgitarist репутация неоспоримаgitarist репутация неоспоримаgitarist репутация неоспоримаgitarist репутация неоспоримаgitarist репутация неоспоримаgitarist репутация неоспорима
По умолчанию [24/96] Franck Pourcel - De Vienne a Moscou. Pleins Feux Sur 5 (1974)




Исполнитель: Franck Pourcel
Альбом: De Vienne a Moscou. Pleins Feux Sur 5 (LP vinyl)
Лейбл: Pathe Marconi EMI 40 SM 5 (France)
Год выпуска: 1974
Жанр: Easy Listening, Instrumental,
Формат: flac (image + cue)
Размер: 705,8 mb
Качество: lossless 24/96 kHz
Наличие сканов в архиве: Да
Источник воспроизведения: WEGA JPS 350 P
АЦП: EE-MU EM8730
Программа-оцифровщик: Cool Edit Pro 2.0



Содержание:

Face A
01 - Tema du "Concerto №1 pour piano et orchestre"
02 - Tritsch-tratsch polka
03 - Danses Polovtsiennes
04 - Plaine, ma plaine
05 - Dance du sabre

Face B
06 - Marche de Radetzky
07 - Prelude en ut diese mineur
08 - Danse Hongroise №6
09 - Theme du "Lac des Cygnes"
10 - Les bateliers de la Volga
11 - La Moldau



Скрытый текст (вы должны зарегистрироваться или войти под своим логином):
У вас нет прав чтобы видеть скрытый текст, содержащейся здесь.
__________________

Я категорически против размещения моих раздач на других ресурсах, без моего на то согласия.
gitarist вне форума   Ответить с цитированием
14 пользователя(ей) сказали cпасибо:
Д.Исакович (31.12.2018), васил (26.06.2018), Владимир 1733 (27.06.2018), Дмитрий (26.06.2018), aqwa (26.06.2018), cloud (26.06.2018), cthutq_1956 (26.06.2018), edd1966 (28.06.2018), Корф (26.06.2018), искатель (30.06.2018), nls (26.06.2018), ogogun (27.06.2018), victor1953 (01.12.2018), zitrus (14.10.2018)
Старый 26.06.2018, 07:26   #2
aqwa
Команда
 
Аватар для aqwa
 

Регистрация: 07.01.2009
Адрес: СССР, Москва
Сообщений: 795
Сказал(а) спасибо: 2,727
Поблагодарили 405 раз(а) в 245 сообщениях
aqwa репутация неоспоримаaqwa репутация неоспоримаaqwa репутация неоспоримаaqwa репутация неоспоримаaqwa репутация неоспоримаaqwa репутация неоспоримаaqwa репутация неоспоримаaqwa репутация неоспоримаaqwa репутация неоспоримаaqwa репутация неоспоримаaqwa репутация неоспорима
По умолчанию

Что-то CUE не могу открыть. Где-то в тексте ошибка?
aqwa вне форума   Ответить с цитированием
Старый 26.06.2018, 11:09   #3
gitarist
VIP
 
Аватар для gitarist
 

Регистрация: 14.10.2010
Адрес: СССР
Сообщений: 1,051
Сказал(а) спасибо: 979
Поблагодарили 5,127 раз(а) в 765 сообщениях
gitarist репутация неоспоримаgitarist репутация неоспоримаgitarist репутация неоспоримаgitarist репутация неоспоримаgitarist репутация неоспоримаgitarist репутация неоспоримаgitarist репутация неоспоримаgitarist репутация неоспоримаgitarist репутация неоспоримаgitarist репутация неоспоримаgitarist репутация неоспорима
По умолчанию

Цитата:
Сообщение от aqwa Посмотреть сообщение
Что-то CUE не могу открыть. Где-то в тексте ошибка?
Есть ещё такой вариант, со страницы моего сайта. Пробуйте.

REM GENRE "Easy Listening, Instrumental"
REM DATE 1974
REM COMMENT "Digitizing gitarist"
TITLE "De Vienne a Moscou. Pleins Feux Su"
PERFORMER "Franck Pourcel "
FILE "01 - Face A.flac" WAVE
TRACK 01 AUDIO
TITLE "Tema du 'Concerto №1 pour piano et orchestre'"
INDEX 01 00:00:00
TRACK 02 AUDIO
TITLE "Tritsch-tratsch polka"
INDEX 01 03:56:48
TRACK 03 AUDIO
TITLE "Danses Polovtsiennes"
INDEX 01 06:46:02
TRACK 04 AUDIO
TITLE "Plaine, ma plaine"
INDEX 01 11:56:33
TRACK 05 AUDIO
TITLE "Dance du sabre"
INDEX 01 15:39:18
FILE "02 - Face B.flac" WAVE
TRACK 06 AUDIO
TITLE "Marche de Radetzky"
INDEX 01 00:00:00
TRACK 07 AUDIO
TITLE "Prelude en ut diese mineur"
INDEX 01 02:44:71
TRACK 08 AUDIO
TITLE "Danse Hongroise №6"
INDEX 01 08:54:73
TRACK 09 AUDIO
TITLE "Theme du 'Lac des Cygnes'"
INDEX 01 13:05:31
TRACK 10 AUDIO
TITLE "Les bateliers de la Volga"
INDEX 01 15:37:01
TRACK 11 AUDIO
TITLE "La Moldau"
__________________

Я категорически против размещения моих раздач на других ресурсах, без моего на то согласия.
gitarist вне форума   Ответить с цитированием
Старый 26.06.2018, 11:22   #4
Корф
Модератор
 

Регистрация: 19.07.2010
Сообщений: 4,196
Сказал(а) спасибо: 4,131
Поблагодарили 15,304 раз(а) в 2,156 сообщениях
Корф репутация неоспоримаКорф репутация неоспоримаКорф репутация неоспоримаКорф репутация неоспоримаКорф репутация неоспоримаКорф репутация неоспоримаКорф репутация неоспоримаКорф репутация неоспоримаКорф репутация неоспоримаКорф репутация неоспоримаКорф репутация неоспорима
По умолчанию

Цитата:
Сообщение от aqwa Посмотреть сообщение
Что-то CUE не могу открыть. Где-то в тексте ошибка?
Надо в двух песнях в cue убрать кавычки. При этом кавычки по краям названий песен остаются на месте. Если непонятно объяснил, то должно быть так, как приведено ниже (скопируйте и вставьте в свой куй):

REM GENRE "Easy Listening, Instrumental"
REM DATE 1974
REM COMMENT "Digitizing gitarist"
TITLE "De Vienne a Moscou. Pleins Feux Su"
PERFORMER "Franck Pourcel "
FILE "01.flac" WAVE
TRACK 01 AUDIO
TITLE "Tema du Concerto №1 pour piano et orchestre"
INDEX 01 00:00:00
TRACK 02 AUDIO
TITLE "Tritsch-tratsch polka"
INDEX 01 03:56:48
TRACK 03 AUDIO
TITLE "Danses Polovtsiennes"
INDEX 01 06:46:02
TRACK 04 AUDIO
TITLE "Plaine, ma plaine"
INDEX 01 11:56:33
TRACK 05 AUDIO
TITLE "Dance du sabre"
INDEX 01 15:39:18
FILE "02.flac" WAVE
TRACK 06 AUDIO
TITLE "Marche de Radetzky"
INDEX 01 00:00:00
TRACK 07 AUDIO
TITLE "Prelude en ut diese mineur"
INDEX 01 02:44:71
TRACK 08 AUDIO
TITLE "Danse Hongroise №6"
INDEX 01 08:54:73
TRACK 09 AUDIO
TITLE "Theme du Lac des Cygnes"
INDEX 01 13:05:31
TRACK 10 AUDIO
TITLE "Les bateliers de la Volga"
INDEX 01 15:37:01
TRACK 11 AUDIO
TITLE "La Moldau"
INDEX 01 18:57:18
__________________
Ccылка на тему: Как скачивать с Яндекс диска!

Чтобы быстро скачать чужой опубликованный файл, сохраните его на свой Диск. На вашем Диске файл окажется мгновенно, а свои файлы вы всегда можете скачать без ограничений.
Корф вне форума   Ответить с цитированием
3 пользователя(ей) сказали cпасибо:
ГеннадийС161 (26.06.2018), edd1966 (28.06.2018), gitarist (26.06.2018)
Старый 26.06.2018, 11:48   #5
ГеннадийС161
Местный
 

Регистрация: 21.06.2015
Адрес: Ростов-на-Дону
Сообщений: 346
Сказал(а) спасибо: 1,606
Поблагодарили 202 раз(а) в 142 сообщениях
ГеннадийС161 за этого человека можно гордитсяГеннадийС161 за этого человека можно гордитсяГеннадийС161 за этого человека можно гордитсяГеннадийС161 за этого человека можно гордитсяГеннадийС161 за этого человека можно гордитсяГеннадийС161 за этого человека можно гордитсяГеннадийС161 за этого человека можно гордитсяГеннадийС161 за этого человека можно гордится
По умолчанию

Цитата:
Сообщение от Корф Посмотреть сообщение
Надо в двух песнях в cue убрать кавычки. ....
В строках 8 и 33...
но конечно легче просто скопировать и вставить в свой cue
Корф Спасибо!
gitarist Огромное спасибо!!!
__________________
С уважением, Геннадий.
ГеннадийС161 вне форума   Ответить с цитированием
Пользователь сказал cпасибо:
gitarist (26.06.2018)
Старый 26.06.2018, 12:37   #6
aqwa
Команда
 
Аватар для aqwa
 

Регистрация: 07.01.2009
Адрес: СССР, Москва
Сообщений: 795
Сказал(а) спасибо: 2,727
Поблагодарили 405 раз(а) в 245 сообщениях
aqwa репутация неоспоримаaqwa репутация неоспоримаaqwa репутация неоспоримаaqwa репутация неоспоримаaqwa репутация неоспоримаaqwa репутация неоспоримаaqwa репутация неоспоримаaqwa репутация неоспоримаaqwa репутация неоспоримаaqwa репутация неоспоримаaqwa репутация неоспорима
По умолчанию

Спасибо большое, Андрей, Олег и Геннадий!
aqwa вне форума   Ответить с цитированием
2 пользователя(ей) сказали cпасибо:
ГеннадийС161 (26.06.2018), gitarist (26.06.2018)
Ответ

Закладки

Опции темы
Опции просмотра

Ваши права в разделе
Вы не можете создавать новые темы
Вы не можете отвечать в темах
Вы не можете прикреплять вложения
Вы не можете редактировать свои сообщения

BB коды Вкл.
Смайлы Вкл.
[IMG] код Вкл.
HTML код Выкл.

Быстрый переход


Часовой пояс GMT, время: 05:04.


Powered by vBulletin® Version 3.8.2
Copyright ©2000 - 2019, Jelsoft Enterprises Ltd. Перевод: zCarot
Rambler's Top100 Республика Татарстан - Каталог сайтов