Все Тут Online
Все Тут Online
Новые сообщения
Все сообщения за последних 24 часа
Расширенный Поиск

   
Меню сайта:
Главная
Форум
Чат
- Online приложения:
- Игры
- Выбор стиля:
- FAQ
- Для начинающих

Вернуться   Все Тут Online > CD (Компакт диски) Lossless - МУЗЫКА БЕЗ ПОТЕРИ КАЧЕСТВА > РОК МУЗЫКА (Lossless) > Зарубежный Rock (lossless)

Старый 31.03.2012, 08:45   #1
V.Zaharov
Местный
 
Аватар для V.Zaharov
 

Регистрация: 24.11.2010
Сообщений: 459
Сказал(а) спасибо: 297
Поблагодарили 446 раз(а) в 135 сообщениях
V.Zaharov репутация неоспоримаV.Zaharov репутация неоспоримаV.Zaharov репутация неоспоримаV.Zaharov репутация неоспоримаV.Zaharov репутация неоспоримаV.Zaharov репутация неоспоримаV.Zaharov репутация неоспоримаV.Zaharov репутация неоспоримаV.Zaharov репутация неоспоримаV.Zaharov репутация неоспоримаV.Zaharov репутация неоспорима
По умолчанию The Tarantino Connection (Soundtrack Anthology) 1996 [lossless]




Product Details:
Audio CD
Original Release Date:1996
Number of Discs: 1
Format: Soundtrack
Label:Universal MusikHispania
ASIN:MCD 80380
Also Available in: Audio CD | Audio Cassette
RIP:FLAC/EAC PORTABLE/LOG+CUE/ENGLISH
Размер:297 MB
(Компакт диск из моей коллекции)
Listen to Samples
1. Interview - Quentin Tarantino Listen
2. Misirlou - Dick Dale & His Del-Tones Listen
3. Dark Night - The Blasters Listen
4. Little Green Bag - George Baker Selection Listen
5. Graceland - Charlie Sexton Listen
6. Girl, You'll Be a Woman Soon - Urge Overkill Listen
7. Waiting for the Miracle - Leonard Cohen Listen
8. A Little Bitty Tear - Burlives Listen
9. Interview - Quentin Tarantino Listen
10. Stuck in the Middle With You - Stealers Wheel Listen
11. You Never Can Tell - Chuck Berry Listen
12. (Love Is) The Tender Trap - Robert Palmer Listen
13. Sweet Jane - Cowboy Junkies Listen
14. Harvest Moon - Bedlam Listen
15. Foolish Heart - The Mavericks Listen
16. Vertigogo [Closing Credits] - Combustible Edison Listes
С откорректированным"EAC",в формате waw:
восстановил ссылку на облаке


















Exact Audio Copy V1.3 from 2. September 2016

Отчёт EAC об извлечении, выполненном 28. апреля 2019, 21:15

Various Artists / The Tarantino Connection

Дисковод: MATSHITADVD-RAM UJ8HC Adapter: 1 ID: 0

Режим чтения : Достоверность
Использование точного потока : Да
Отключение кэша аудио : Да
Использование указателей C2 : Нет

Коррекция смещения при чтении : 6
Способность читать области Lead-in и Lead-out : Нет
Заполнение пропущенных сэмплов тишиной : Да
Удаление блоков с тишиной в начале и конце : Нет
При вычислениях CRC использовались нулевые сэмплы : Да
Интерфейс : Встроенный Win32-интерфейс для Win NT/2000

Выходной формат : Внутренние WAV-операции
Формат сэмплов : 44.100 Гц; 16 бит; стерео


TOC извлечённого CD

Трек | Старт | Длительность | Начальный сектор | Конечный сектор
---------------------------------------------------------------------
1 | 0:00.00 | 1:48.45 | 0 | 8144
2 | 1:48.45 | 2:14.62 | 8145 | 18256
3 | 4:03.32 | 3:49.10 | 18257 | 35441
4 | 7:52.42 | 3:16.43 | 35442 | 50184
5 | 11:09.10 | 3:24.12 | 50185 | 65496
6 | 14:33.22 | 3:10.08 | 65497 | 79754
7 | 17:43.30 | 7:41.02 | 79755 | 114331
8 | 25:24.32 | 2:04.13 | 114332 | 123644
9 | 27:28.45 | 0:55.55 | 123645 | 127824
10 | 28:24.25 | 3:16.30 | 127825 | 142554
11 | 31:40.55 | 2:42.17 | 142555 | 154721
12 | 34:22.72 | 2:35.25 | 154722 | 166371
13 | 36:58.22 | 3:34.28 | 166372 | 182449
14 | 40:32.50 | 4:08.30 | 182450 | 201079
15 | 44:41.05 | 3:33.17 | 201080 | 217071
16 | 48:14.22 | 2:34.35 | 217072 | 228656


Характеристики диапазона извлечения и сообщения об ошибках

Выбранный диапазон

Имя файла C:\Users\maxim\Downloads\Various Artists - The Tarantino Connection.wav

Пиковый уровень 99.2 %
Скорость извлечения 4.3 X
Качество диапазона 99.9 %
CRC копии B54ACFD0
Копирование... OK

Ошибок не произошло



Конец отчёта

==== Контрольная сумма отчёта 859FEDF9FEF4776B0A8117F43F46E861BE38DD0A890E59AC09 ED68CA3F47BE51 ====



Скрытый текст (вы должны зарегистрироваться или войти под своим логином):
У вас нет прав чтобы видеть скрытый текст, содержащейся здесь.



КОВРИКИ:
https://cloud.mail.ru/public/2eqw/3CWF2yiX8
__________________
презираю барыг и хамов

Последний раз редактировалось V.Zaharov; 08.08.2019 в 19:18. Причина: корректировка рипа
V.Zaharov вне форума   Ответить с цитированием
6 пользователя(ей) сказали cпасибо:
Алёша 333 (09.08.2019), Дмитрий (31.03.2012), petrov-vodkin (17.05.2012), viko (31.03.2012), юрий алексеевич (29.04.2019)
Старый 31.03.2012, 10:27   #2
Дмитрий
Music Group
 
Аватар для Дмитрий
 

Регистрация: 12.12.2008
Адрес: Москва прошлого тысячелетия.
Сообщений: 130,968
Сказал(а) спасибо: 30,765
Поблагодарили 146,310 раз(а) в 54,149 сообщениях
Дмитрий репутация неоспоримаДмитрий репутация неоспоримаДмитрий репутация неоспоримаДмитрий репутация неоспоримаДмитрий репутация неоспоримаДмитрий репутация неоспоримаДмитрий репутация неоспоримаДмитрий репутация неоспоримаДмитрий репутация неоспоримаДмитрий репутация неоспоримаДмитрий репутация неоспорима
По умолчанию

V.Zaharov, Спасибо за диск!



Добавил ссылочки (образ Flac+Сue)
Архив стал весить 313mb (c 3% для восстановления) против 525mb в WAV.
Вальдемар, это в 1,7 раз легче, так что.. можешь взять себе на заметку на будущее.
Дмитрий вне форума   Ответить с цитированием
Старый 31.03.2012, 10:48   #3
Дмитрий
Music Group
 
Аватар для Дмитрий
 

Регистрация: 12.12.2008
Адрес: Москва прошлого тысячелетия.
Сообщений: 130,968
Сказал(а) спасибо: 30,765
Поблагодарили 146,310 раз(а) в 54,149 сообщениях
Дмитрий репутация неоспоримаДмитрий репутация неоспоримаДмитрий репутация неоспоримаДмитрий репутация неоспоримаДмитрий репутация неоспоримаДмитрий репутация неоспоримаДмитрий репутация неоспоримаДмитрий репутация неоспоримаДмитрий репутация неоспоримаДмитрий репутация неоспоримаДмитрий репутация неоспорима
По умолчанию

V.Zaharov, ещё
в испанском EAC поставь (Se han usado muestras nulas en los cбlculos CRC - SN) - (При вычислениях CRC использовались нулевые сэмплы : Да)
ok
Дмитрий вне форума   Ответить с цитированием
Старый 04.04.2012, 09:03   #4
Wow4ik22
Гость
 

Сообщений: n/a
По умолчанию

V.Zaharov, спасибо!
...вот обложки нашел, вроде они:


кликабельно...
  Ответить с цитированием
Пользователь сказал cпасибо:
V.Zaharov (05.04.2012)
Старый 28.04.2019, 19:54   #5
V.Zaharov
Местный
 
Аватар для V.Zaharov
 

Регистрация: 24.11.2010
Сообщений: 459
Сказал(а) спасибо: 297
Поблагодарили 446 раз(а) в 135 сообщениях
V.Zaharov репутация неоспоримаV.Zaharov репутация неоспоримаV.Zaharov репутация неоспоримаV.Zaharov репутация неоспоримаV.Zaharov репутация неоспоримаV.Zaharov репутация неоспоримаV.Zaharov репутация неоспоримаV.Zaharov репутация неоспоримаV.Zaharov репутация неоспоримаV.Zaharov репутация неоспоримаV.Zaharov репутация неоспорима
По умолчанию

восстановил ссылку на облаке
__________________
презираю барыг и хамов
V.Zaharov вне форума   Ответить с цитированием
Старый 08.08.2019, 19:10   #6
V.Zaharov
Местный
 
Аватар для V.Zaharov
 

Регистрация: 24.11.2010
Сообщений: 459
Сказал(а) спасибо: 297
Поблагодарили 446 раз(а) в 135 сообщениях
V.Zaharov репутация неоспоримаV.Zaharov репутация неоспоримаV.Zaharov репутация неоспоримаV.Zaharov репутация неоспоримаV.Zaharov репутация неоспоримаV.Zaharov репутация неоспоримаV.Zaharov репутация неоспоримаV.Zaharov репутация неоспоримаV.Zaharov репутация неоспоримаV.Zaharov репутация неоспоримаV.Zaharov репутация неоспорима
По умолчанию

РИП ПЕРЕДЕЛАЛ ., ОТДЕЛЬНЫМ ФАЙЛОМ ЗАГРУЗИЛ ВСЕ КОВРИКИ.
__________________
презираю барыг и хамов
V.Zaharov вне форума   Ответить с цитированием
Пользователь сказал cпасибо:
Алёша 333 (09.08.2019)
Ответ

Закладки

Опции темы
Опции просмотра

Ваши права в разделе
Вы не можете создавать новые темы
Вы не можете отвечать в темах
Вы не можете прикреплять вложения
Вы не можете редактировать свои сообщения

BB коды Вкл.
Смайлы Вкл.
[IMG] код Вкл.
HTML код Выкл.

Быстрый переход


Часовой пояс GMT, время: 10:02.


Powered by vBulletin® Version 3.8.2
Copyright ©2000 - 2019, Jelsoft Enterprises Ltd. Перевод: zCarot
Rambler's Top100 Республика Татарстан - Каталог сайтов