Все Тут Online
Все Тут Online
Новые сообщения
Все сообщения за последних 24 часа
Расширенный Поиск

   
Меню сайта:
Главная
Форум
Чат
- Online приложения:
- Игры
- Выбор стиля:
- FAQ
- Для начинающих

Вернуться   Все Тут Online > ОЦИФРОВКИ ВИНИЛА (Lossless) > Оцифровки ВИНИЛА пользователей нашего форума > Оцифровки Борис 63 (Technics SL-1200 MK3D // Victor QL-A7 [Audio-Technica AT440MLa] => Accuphase 200

Старый 01.10.2018, 12:15   #1
Борис 63
Супермодератор. Смотрящий за форумом. Модератор разделов оцифровок.
 
Аватар для Борис 63
 

Регистрация: 01.02.2010
Адрес: СССР Москва
Сообщений: 13,833
Сказал(а) спасибо: 7,887
Поблагодарили 45,858 раз(а) в 7,344 сообщениях
Борис 63 репутация неоспоримаБорис 63 репутация неоспоримаБорис 63 репутация неоспоримаБорис 63 репутация неоспоримаБорис 63 репутация неоспоримаБорис 63 репутация неоспоримаБорис 63 репутация неоспоримаБорис 63 репутация неоспоримаБорис 63 репутация неоспоримаБорис 63 репутация неоспоримаБорис 63 репутация неоспорима
По умолчанию (24/96) гр.ДОКТОР ШЛЯГЕР -То,что доктор прописал- 1990 (lossless)










Оцифровка с пластинки.

гр.Доктор шлягер - То,что доктор прописал 1990

01.То что доктор прописал
02.Когда нибудь
03.Как скажешь так и будет
04.Черная птица
05.Мостик
06.Левый берег
07.Русалка
08.И никто другой
09.Стена
10.Последний день


ссылка

Скрытый текст (вы должны зарегистрироваться или войти под своим логином):
У вас нет прав чтобы видеть скрытый текст, содержащейся здесь.
__________________
Ccылка на тему: Как скачивать с Яндекс диска!

Чтобы быстро скачать чужой опубликованный файл, сохраните его на свой Диск. На вашем Диске файл окажется мгновенно, а свои файлы вы всегда можете скачать без ограничений.

Последний раз редактировалось Борис 63; 01.10.2018 в 12:47.
Борис 63 вне форума   Ответить с цитированием
15 пользователя(ей) сказали cпасибо:
13. (02.10.2018), Вит70 (01.10.2018), Дмитрий (02.10.2018), Вячеслав1972 (01.10.2018), belomor30 (02.10.2018), bobrovich (02.10.2018), cloud (01.10.2018), cthutq_1956 (01.10.2018), DeD (01.10.2018), mlkn658776jvg (07.10.2018), Саша (beloborod) (01.10.2018), таня50 (08.10.2018), Pre-ll's (01.10.2018), Shtycer (16.10.2018), sidorov31 (02.10.2018)
Старый 01.10.2018, 12:42   #2
Вит70
Команда
 

Регистрация: 09.06.2011
Сообщений: 1,429
Сказал(а) спасибо: 3,503
Поблагодарили 2,534 раз(а) в 916 сообщениях
Вит70 репутация неоспоримаВит70 репутация неоспоримаВит70 репутация неоспоримаВит70 репутация неоспоримаВит70 репутация неоспоримаВит70 репутация неоспоримаВит70 репутация неоспоримаВит70 репутация неоспоримаВит70 репутация неоспоримаВит70 репутация неоспоримаВит70 репутация неоспорима
По умолчанию

Борис 63, большое спасибо!!!!

гр.Доктор шлягер - То,что доктор прописал 1990

01.То что доктор прописал
02.Когда нибудь
03.Как скажешь так и будет
04.Черная птица
05.Мостик
06.Левый берег
07.Русалка
08.И никто другой
09.Стена
10.Последний день
Вит70 на форуме   Ответить с цитированием
3 пользователя(ей) сказали cпасибо:
Борис 63 (01.10.2018), Саша (beloborod) (01.10.2018), sidorov31 (02.10.2018)
Старый 02.10.2018, 11:45   #3
sidorov31
Местный
 
Аватар для sidorov31
 

Регистрация: 28.01.2014
Сообщений: 206
Сказал(а) спасибо: 255
Поблагодарили 267 раз(а) в 95 сообщениях
sidorov31 за этого человека можно гордитсяsidorov31 за этого человека можно гордитсяsidorov31 за этого человека можно гордитсяsidorov31 за этого человека можно гордитсяsidorov31 за этого человека можно гордитсяsidorov31 за этого человека можно гордитсяsidorov31 за этого человека можно гордитсяsidorov31 за этого человека можно гордитсяsidorov31 за этого человека можно гордитсяsidorov31 за этого человека можно гордится
По умолчанию

гр.Доктор шлягер - То,что доктор прописал 1990

01.То что доктор прописал
02.Когда нибудь
03.Как скажешь так и будет
04.Черная птица
05.Мостик
06.Левый берег
07.Русалка
08.И никто другой
09.Стена
10.Последний день[/QUOTE]

гр.ДОКТОР ШЛЯГЕР -То,что доктор прописал- 1990.cue

TITLE "гр.ДОКТОР ШЛЯГЕР -То,что доктор прописал- 1990"
PERFORMER "гр.ДОКТОР ШЛЯГЕР"
FILE "гр.ДОКТОР ШЛЯГЕР -То,что доктор прописал- 1990.flac" WAVE
TRACK 01 AUDIO
TITLE "То что доктор прописал"
PERFORMER "гр.ДОКТОР ШЛЯГЕР"
INDEX 01 00:00:00
TRACK 02 AUDIO
TITLE "Когда-нибудь"
PERFORMER "гр.ДОКТОР ШЛЯГЕР"
INDEX 01 03:37:00
TRACK 03 AUDIO
TITLE "Как скажешь так и будет"
PERFORMER "гр.ДОКТОР ШЛЯГЕР"
INDEX 01 08:03:00
TRACK 04 AUDIO
TITLE "Черная птица"
PERFORMER "гр.ДОКТОР ШЛЯГЕР"
INDEX 01 11:56:00
TRACK 05 AUDIO
TITLE "Мостик"
PERFORMER "гр.ДОКТОР ШЛЯГЕР"
INDEX 01 16:32:00
TRACK 06 AUDIO
TITLE "Левый берег"
PERFORMER "гр.ДОКТОР ШЛЯГЕР"
INDEX 01 20:08:00
TRACK 07 AUDIO
TITLE "Русалка"
PERFORMER "гр.ДОКТОР ШЛЯГЕР"
INDEX 01 24:01:00
TRACK 08 AUDIO
TITLE "И никто другой"
PERFORMER "гр.ДОКТОР ШЛЯГЕР"
INDEX 01 26:58:00
TRACK 09 AUDIO
TITLE "Стена"
PERFORMER "гр.ДОКТОР ШЛЯГЕР"
INDEX 01 30:20:00
TRACK 10 AUDIO
TITLE "Последний день"
PERFORMER "гр.ДОКТОР ШЛЯГЕР"
INDEX 01 36:24:00

Последний раз редактировалось sidorov31; 02.10.2018 в 11:47.
sidorov31 на форуме   Ответить с цитированием
Пользователь сказал cпасибо:
Борис 63 (02.10.2018)
Ответ

Закладки

Опции темы
Опции просмотра

Ваши права в разделе
Вы не можете создавать новые темы
Вы не можете отвечать в темах
Вы не можете прикреплять вложения
Вы не можете редактировать свои сообщения

BB коды Вкл.
Смайлы Вкл.
[IMG] код Вкл.
HTML код Выкл.

Быстрый переход


Часовой пояс GMT, время: 14:47.


Powered by vBulletin® Version 3.8.2
Copyright ©2000 - 2018, Jelsoft Enterprises Ltd. Перевод: zCarot
Rambler's Top100 Республика Татарстан - Каталог сайтов