Все Тут Online
Все Тут Online
Новые сообщения
Все сообщения за последних 24 часа
Расширенный Поиск

   
Меню сайта:
Главная
Форум
Чат
- Online приложения:
- Игры
- Выбор стиля:
- FAQ
- Для начинающих

Вернуться   Все Тут Online > ОЦИФРОВКИ ВИНИЛА (Lossless) > Оцифровки ВИНИЛА пользователей нашего форума > В гостях у Алекса (ник shurele) Оцифровки с магнитной ленты, винила и компакт-диски CD

Старый 28.04.2017, 05:26   #1
shurele
VIP
 
Аватар для shurele
 

Регистрация: 09.04.2016
Адрес: Германия
Сообщений: 1,366
Сказал(а) спасибо: 130
Поблагодарили 4,025 раз(а) в 862 сообщениях
shurele репутация неоспоримаshurele репутация неоспоримаshurele репутация неоспоримаshurele репутация неоспоримаshurele репутация неоспоримаshurele репутация неоспоримаshurele репутация неоспоримаshurele репутация неоспоримаshurele репутация неоспоримаshurele репутация неоспоримаshurele репутация неоспорима
Отправить сообщение для shurele с помощью Skype™
По умолчанию Carmelo Zappulla - Parentesi

Carmelo Zappulla

Parentesi



Карме́ло Дзаппу́лла (итал. Carmelo Zappulla) — итальянский певец. Родился 7 ноября 1955, Сиракуза, Сицилия. Первую грамзапись сделал в возрасте 6 лет. В девятилетнем возрасте занял первое место в местном конкурсе “Bisbini”, где исполнял песни Серджо Бруни. Первым серьёзным успехом Кармело стала песня «Pover'ammore» из одноименного фильма, в котором Дзаппулла дебютировал и как актер. Песенное творчество Дзаппуллы относят к неомелодическому направлению. В дискографии певца 33 альбома, последний («Mia...”) вышел в 2015 году. Не входя в число звезд первой величины, Кармелло Дзаппула, тем не менее, своим творчеством добавил новых оттенков в палитру итальянской песни и завоевал признание множества почитателей. Кармело Дзаппулла снялся в нескольких фильмах, из которых наиболее известны «Pover'ammore» и “Pronto, Lucia”.

Carmelo Zappulla - Википедия



Альбом: Parentesi
Исполнитель: Carmelo Zappulla
Год выпуска: 2008
Время звучания: 00:42:45
Жанр: Pop / Blues / Folk / World Folk
Формат: FLAC (tracks)/ MP3 (320) (tracks)
Качество: Lossless
Количество треков: 11
Размер архива: flac - 275 Mb; mp3 (320kbps) - 99 Mb
Язык релиза: итальянский

Содержание:

1. Sinno' Me Moro - 03:23
2. Comm' Aggia Fa' - 03:48
3. Il Tempo Se Ne Va - 04:17
4. L'immensita' - 03:16
5. Pensieri E Parole - 03:55
6. Dio Come Ti Amo - 04:32
7. Cade La Neve - 03:32
8. Figlio Unico - 03:04
9. Caruso - 04:45
10. Vecchio Frack - 03:52
11. Tu Si' Na Cosa Grande - 04:01


Код:
Exact Audio Copy V1.0 beta 3 from 29. August 2011

EAC extraction logfile from 18. April 2017, 17:01

Carmelo Zappulla / Parentesi

Used drive  : TSSTcorpCDDVDW SH-216DB   Adapter: 0  ID: 0

Read mode               : Secure
Utilize accurate stream : Yes
Defeat audio cache      : Yes
Make use of C2 pointers : No

Read offset correction                      : 6
Overread into Lead-In and Lead-Out          : No
Fill up missing offset samples with silence : Yes
Delete leading and trailing silent blocks   : No
Null samples used in CRC calculations       : Yes
Used interface                              : Native Win32 interface for Win NT & 2000

Used output format              : User Defined Encoder
Selected bitrate                : 1024 kBit/s
Quality                         : High
Add ID3 tag                     : No
Command line compressor         : C:\Program Files (x86)\Exact Audio Copy\Flac\flac.exe
Additional command line options : -V -8 -T "Date=%year%" -T "Genre=%genre%" %source%


TOC of the extracted CD

     Track |   Start  |  Length  | Start sector | End sector 
    ---------------------------------------------------------
        1  |  0:00.00 |  3:23.72 |         0    |    15296   
        2  |  3:23.72 |  3:49.69 |     15297    |    32540   
        3  |  7:13.66 |  4:18.54 |     32541    |    51944   
        4  | 11:32.45 |  3:17.44 |     51945    |    66763   
        5  | 14:50.14 |  3:56.68 |     66764    |    84531   
        6  | 18:47.07 |  4:34.17 |     84532    |   105098   
        7  | 23:21.24 |  3:33.66 |    105099    |   121139   
        8  | 26:55.15 |  3:05.69 |    121140    |   135083   
        9  | 30:01.09 |  4:47.46 |    135084    |   156654   
       10  | 34:48.55 |  3:54.02 |    156655    |   174206   
       11  | 38:42.57 |  4:02.19 |    174207    |   192375   


Range status and errors

Selected range

     Filename L:\Private\My Audio Ripps\ CD - RIPS\Carmelo Zappulla - Parentesi\Carmelo Zappulla - Parentesi.wav

     Peak level 100.0 %
     Extraction speed 2.9 X
     Range quality 99.9 %
     Test CRC 092AED36
     Copy CRC 092AED36
     Copy OK

No errors occurred

 
AccurateRip summary
 
Track  1  not present in database
Track  2  not present in database
Track  3  not present in database
Track  4  not present in database
Track  5  not present in database
Track  6  not present in database
Track  7  not present in database
Track  8  not present in database
Track  9  not present in database
Track 10  not present in database
Track 11  not present in database
 
None of the tracks are present in the AccurateRip database

End of status report

==== Log checksum 0F65C04FB73D2B0C8F5C27E00511A56A60A2E24251427DCE322CF5911E6E5122 ====

Рип - мой


Страна: Italy
Издатель (лейбл): Gogo Music
Формат: FLAC / MP3 (320)
Параметры: CD Copy, Album, Rip, image, log, cue
Источник: копия СД из собственной коллекции


Скрытый текст (вы должны зарегистрироваться или войти под своим логином):
У вас нет прав чтобы видеть скрытый текст, содержащейся здесь.
__________________
Ccылка на тему: Как скачивать с Яндекс диска!

Чтобы быстро скачать чужой опубликованный файл, сохраните его на свой Диск. На вашем Диске файл окажется мгновенно, а свои файлы вы всегда можете скачать без ограничений.
shurele на форуме   Ответить с цитированием
2 пользователя(ей) сказали cпасибо:
edioo43 (06.05.2017), vto69 (01.05.2017)
Старый 07.10.2017, 08:19   #2
FENIX99966
Пользователь
 

Регистрация: 02.08.2017
Адрес: в городе
Сообщений: 80
Сказал(а) спасибо: 631
Поблагодарили 5 раз(а) в 4 сообщениях
FENIX99966 на пути к лучшему
По умолчанию

Спасибо, прикольно поёт...
FENIX99966 вне форума   Ответить с цитированием
Ответ

Закладки

Опции темы
Опции просмотра

Ваши права в разделе
Вы не можете создавать новые темы
Вы не можете отвечать в темах
Вы не можете прикреплять вложения
Вы не можете редактировать свои сообщения

BB коды Вкл.
Смайлы Вкл.
[IMG] код Вкл.
HTML код Выкл.

Быстрый переход


Часовой пояс GMT, время: 19:24.


Powered by vBulletin® Version 3.8.2
Copyright ©2000 - 2018, Jelsoft Enterprises Ltd. Перевод: zCarot
Rambler's Top100 Республика Татарстан - Каталог сайтов