Все Тут Online
Все Тут Online
Новые сообщения
Все сообщения за последних 24 часа
Расширенный Поиск

   
Меню сайта:
Главная
Форум
Чат
- Online приложения:
- Игры
- Выбор стиля:
- FAQ
- Для начинающих

Вернуться   Все Тут Online > ОЦИФРОВКИ ВИНИЛА (Lossless) > Оцифровки ВИНИЛА пользователей нашего форума > В гостях у Вячеслава (ник bobrovich) > Раздел собственных оцифровок с винила

Ответ
 
Опции темы Опции просмотра
Старый 29.06.2017, 22:51   #1
Дмитрий
Music Group
 
Аватар для Дмитрий
 

Регистрация: 12.12.2008
Адрес: Москва прошлого тысячелетия.
Сообщений: 147,285
Сказал(а) спасибо: 32,632
Поблагодарили 163,278 раз(а) в 59,522 сообщениях
Дмитрий репутация неоспоримаДмитрий репутация неоспоримаДмитрий репутация неоспоримаДмитрий репутация неоспоримаДмитрий репутация неоспоримаДмитрий репутация неоспоримаДмитрий репутация неоспоримаДмитрий репутация неоспоримаДмитрий репутация неоспоримаДмитрий репутация неоспоримаДмитрий репутация неоспорима
По умолчанию [24/192] [Издание из 3 LP] Алла Пугачева - Арлекино и другие & Зеркало Души [С60—09799-800, С60—09801-2, С60—11975-6] [WAV]

[24/192] [издание из 3 LP] Алла Пугачева - Арлекино и другие & Зеркало Души [Мелодия ‎– С60—09799-800, С60—09801-2, С60—11975-6 ] (1980 год)[WAV]







Треклист:

«Зеркало Души»

A1 Бубен Шамана
A2 Верю В Тебя
A3 Сонет Шекспира

Translated By – С. Маршак*


B1 Приезжай
B2 Не Отрекаются Любя

Conductor – В. Терлецкий*Orchestra – Оркестр Под Управлением В. Терлецкого*


B3 Песенка Про Меня
B4 Женщина, Которая Поет

Translated By – Н. Гребнев*


C1 Все Могут Короли
C2 Куда Уходит Детство
C3 Волшебник-Недоучка
C4 Полно Вокруг Мудрецов

D1 Мы Не Любим Друг Друга
D2 Если И Долго Мучиться
D3 До Свиданья, Лето
D4 Любовь Одна Виновата
D5 Найди Себе Друга

«Арлекино» И Другие...

E1 Ты Снишься Мне
E2 22+28
E3 Ясные Глаза
E4 Посидим, Поокаем
E5 Арлекино

F1 Мне Нравится
F2 У Зеркала
F3 По Улице Моей
F4 Посреди Зимы
F5 Без Тебя
F6 Очень Хорошо

Credits

Conductor – А. Авилов* (tracks: A2, A3, B1, B3, B4), В. Клейнот* (tracks: A1, C1 to D5)
Ensemble – Вокально-Инструментальный Ансамбль Под Управлением В. Клейнота* (tracks: A1, C1 to D5), Ритм (tracks: A2, A3, B1, B3, B4)
Lyrics By – В. Шекспир* (tracks: A3), Б. Ахмадулина* (tracks: F3), Б. Баркас* (tracks: E5), Б. Горбонос* (tracks: B1), В. Тушнова* (tracks: B2), В. Лазарев* (tracks: E3), В. Луговой* (tracks: E2), В. Харитонов* (tracks: F5), Д. Усманов* (tracks: F6), И. Резник* (tracks: E4), К. Кулиев* (tracks: B4), Л. Деребенев* (tracks: A1, B3, C1 to D5), М. Цветаева* (tracks: F1, F2), Н. Олев* (tracks: F4), Н. Шумаков* (tracks: E1), О. Гаджикасимов* (tracks: A2)
Music By – Э. Димитров* (tracks: E5), А. Зацепин* (tracks: A1, A2, B3, C2 to D5), А. Муромцев* (tracks: E4), А. Мажуков* (tracks: E1, F6), А. Днепров* (tracks: F5), Б. Горбонос* (tracks: A3, B1, B4), Б. Рычков* (tracks: C1), В. Добрынин* (tracks: E2), Л. Гарин* (tracks: B4), М. Минков* (tracks: B2), М. Таривердиев* (tracks: F1 to F3), П. Слободкин* (tracks: F4), Р. Мануков* (tracks: E3)

Notes
© Ленинградский завод грампластинок, 1980

Ccылки:

WAV+CUE:

Скрытый текст (вы должны зарегистрироваться или войти под своим логином):
У вас нет прав чтобы видеть скрытый текст, содержащейся здесь.


mp3--320kbps:

Скрытый текст (вы должны зарегистрироваться или войти под своим логином):
У вас нет прав чтобы видеть скрытый текст, содержащейся здесь.


Потрековый mp3--320kbps:

Скрытый текст (вы должны зарегистрироваться или войти под своим логином):
У вас нет прав чтобы видеть скрытый текст, содержащейся здесь.
Дмитрий вне форума   Ответить с цитированием
17 пользователя(ей) сказали cпасибо:
300977mvh (14.03.2019), ГеннадийС161 (02.07.2017), BigPig (18.12.2019), искатель (16.08.2017), Fellow (29.12.2017), Максkg (30.06.2017), kopilovoleg (30.06.2017), Mitrofan870 (12.05.2020), Сани (30.06.2017), таня50 (30.06.2017), УКС (30.06.2017), ТОМ (30.06.2017), Pensioneer (01.07.2017), SVR (30.08.2017), T.Meliz (16.10.2017), tem (02.07.2017), victor1953 (01.07.2017)
Старый 29.06.2017, 23:03   #2
Дмитрий
Music Group
 
Аватар для Дмитрий
 

Регистрация: 12.12.2008
Адрес: Москва прошлого тысячелетия.
Сообщений: 147,285
Сказал(а) спасибо: 32,632
Поблагодарили 163,278 раз(а) в 59,522 сообщениях
Дмитрий репутация неоспоримаДмитрий репутация неоспоримаДмитрий репутация неоспоримаДмитрий репутация неоспоримаДмитрий репутация неоспоримаДмитрий репутация неоспоримаДмитрий репутация неоспоримаДмитрий репутация неоспоримаДмитрий репутация неоспоримаДмитрий репутация неоспоримаДмитрий репутация неоспорима
По умолчанию

Такое издание не оцифровывалось, насколько я помню.
Дмитрий вне форума   Ответить с цитированием
Старый 29.06.2017, 23:16   #3
Дмитрий
Music Group
 
Аватар для Дмитрий
 

Регистрация: 12.12.2008
Адрес: Москва прошлого тысячелетия.
Сообщений: 147,285
Сказал(а) спасибо: 32,632
Поблагодарили 163,278 раз(а) в 59,522 сообщениях
Дмитрий репутация неоспоримаДмитрий репутация неоспоримаДмитрий репутация неоспоримаДмитрий репутация неоспоримаДмитрий репутация неоспоримаДмитрий репутация неоспоримаДмитрий репутация неоспоримаДмитрий репутация неоспоримаДмитрий репутация неоспоримаДмитрий репутация неоспоримаДмитрий репутация неоспорима
По умолчанию

Как Вам звук, Господа?
Дмитрий вне форума   Ответить с цитированием
2 пользователя(ей) сказали cпасибо:
Сани (30.06.2017), таня50 (30.06.2017)
Старый 29.06.2017, 23:36   #4
Дмитрий
Music Group
 
Аватар для Дмитрий
 

Регистрация: 12.12.2008
Адрес: Москва прошлого тысячелетия.
Сообщений: 147,285
Сказал(а) спасибо: 32,632
Поблагодарили 163,278 раз(а) в 59,522 сообщениях
Дмитрий репутация неоспоримаДмитрий репутация неоспоримаДмитрий репутация неоспоримаДмитрий репутация неоспоримаДмитрий репутация неоспоримаДмитрий репутация неоспоримаДмитрий репутация неоспоримаДмитрий репутация неоспоримаДмитрий репутация неоспоримаДмитрий репутация неоспоримаДмитрий репутация неоспорима
По умолчанию

Арлекино и другие.cue

Код:
REM GENRE "Поп"
REM DATE 1980
REM COMMENT "Оцифровка - Слава Бобров"
TITLE "Арлекино и другие"
PERFORMER "Алла Пугачёва"
FILE "АРЛЕКИНО.wav" WAVE
  TRACK 01 AUDIO
TITLE "Ты Снишься Мне"
PERFORMER "Алла Пугачёва"
    INDEX 01 00:00:00
  TRACK 02 AUDIO
TITLE "22+28"
PERFORMER "Алла Пугачёва"
    INDEX 01 03:47:48
  TRACK 03 AUDIO
TITLE "Ясные Глаза"
PERFORMER "Алла Пугачёва"
    INDEX 01 06:37:24
  TRACK 04 AUDIO
TITLE "Посидим, Поокаем"
PERFORMER "Алла Пугачёва"
    INDEX 01 10:34:64
  TRACK 05 AUDIO
TITLE "Арлекино"
PERFORMER "Алла Пугачёва"
    INDEX 01 14:07:35
  TRACK 06 AUDIO
TITLE "Мне Нравится"
PERFORMER "Алла Пугачёва"
    INDEX 01 18:40:31
  TRACK 07 AUDIO
TITLE "У Зеркала"
PERFORMER "Алла Пугачёва"
    INDEX 01 20:14:45
  TRACK 08 AUDIO
TITLE "По Улице Моей"
PERFORMER "Алла Пугачёва"
    INDEX 01 21:51:73
  TRACK 09 AUDIO
TITLE "Посреди Зимы"
PERFORMER "Алла Пугачёва"
    INDEX 01 24:40:64
  TRACK 10 AUDIO
TITLE "Без Тебя"
PERFORMER "Алла Пугачёва"
    INDEX 01 30:42:00
  TRACK 11 AUDIO
TITLE "Очень Хорошо"
PERFORMER "Алла Пугачёва"
    INDEX 01 33:51:69
Дмитрий вне форума   Ответить с цитированием
Старый 29.06.2017, 23:56   #5
Дмитрий
Music Group
 
Аватар для Дмитрий
 

Регистрация: 12.12.2008
Адрес: Москва прошлого тысячелетия.
Сообщений: 147,285
Сказал(а) спасибо: 32,632
Поблагодарили 163,278 раз(а) в 59,522 сообщениях
Дмитрий репутация неоспоримаДмитрий репутация неоспоримаДмитрий репутация неоспоримаДмитрий репутация неоспоримаДмитрий репутация неоспоримаДмитрий репутация неоспоримаДмитрий репутация неоспоримаДмитрий репутация неоспоримаДмитрий репутация неоспоримаДмитрий репутация неоспоримаДмитрий репутация неоспорима
По умолчанию

Зеркало Души.cue

Код:
REM GENRE "Поп"
REM DATE 1980
REM COMMENT "Оцифровка - Слава Бобров"
TITLE "Зеркало Души"
PERFORMER "Алла Пугачёва"
FILE "1.wav" WAVE
  TRACK 01 AUDIO
TITLE "Бубен Шамана"
PERFORMER "Алла Пугачёва"
    INDEX 01 00:00:00
  TRACK 02 AUDIO
TITLE "Верю В Тебя"
PERFORMER "Алла Пугачёва"
    INDEX 01 06:59:10
  TRACK 03 AUDIO
TITLE "Сонет Шекспира"
PERFORMER "Алла Пугачёва"
    INDEX 01 11:56:58
  TRACK 04 AUDIO
TITLE "Приезжай"
PERFORMER "Алла Пугачёва"
    INDEX 01 15:18:39
  TRACK 05 AUDIO
TITLE "Не Отрекаются Любя"
PERFORMER "Алла Пугачёва"
    INDEX 01 21:05:47
  TRACK 06 AUDIO
TITLE "Песенка Про Меня"
PERFORMER "Алла Пугачёва"
    INDEX 01 25:21:48
  TRACK 07 AUDIO
TITLE "Женщина, Которая Поет"
PERFORMER "Алла Пугачёва"
    INDEX 01 29:00:69
FILE "2.wav" WAVE
  TRACK 08 AUDIO
TITLE "Все Могут Короли"
PERFORMER "Алла Пугачёва"
    INDEX 01 00:00:00
  TRACK 09 AUDIO
TITLE "Куда Уходит Детство"
PERFORMER "Алла Пугачёва"
    INDEX 01 03:02:14
  TRACK 10 AUDIO
TITLE "Волшебник-Недоучка"
PERFORMER "Алла Пугачёва"
    INDEX 01 07:54:05
  TRACK 11 AUDIO
TITLE "Полно Вокруг Мудрецов"
PERFORMER "Алла Пугачёва"
    INDEX 01 11:19:02
  TRACK 12 AUDIO
TITLE "Мы Не Любим Друг Друга"
PERFORMER "Алла Пугачёва"
    INDEX 01 15:48:23
  TRACK 13 AUDIO
TITLE "Если И Долго Мучиться"
PERFORMER "Алла Пугачёва"
    INDEX 01 19:30:65
  TRACK 14 AUDIO
TITLE "До Свиданья, Лето"
PERFORMER "Алла Пугачёва"
    INDEX 01 22:21:49
  TRACK 15 AUDIO
TITLE "Любовь Одна Виновата"
PERFORMER "Алла Пугачёва"
    INDEX 01 25:54:04
  TRACK 16 AUDIO
TITLE "Найди Себе Друга"
PERFORMER "Алла Пугачёва"
    INDEX 01 30:26:33
Дмитрий вне форума   Ответить с цитированием
Старый 30.06.2017, 00:09   #6
Дмитрий
Music Group
 
Аватар для Дмитрий
 

Регистрация: 12.12.2008
Адрес: Москва прошлого тысячелетия.
Сообщений: 147,285
Сказал(а) спасибо: 32,632
Поблагодарили 163,278 раз(а) в 59,522 сообщениях
Дмитрий репутация неоспоримаДмитрий репутация неоспоримаДмитрий репутация неоспоримаДмитрий репутация неоспоримаДмитрий репутация неоспоримаДмитрий репутация неоспоримаДмитрий репутация неоспоримаДмитрий репутация неоспоримаДмитрий репутация неоспоримаДмитрий репутация неоспоримаДмитрий репутация неоспорима
По умолчанию

Для тех, кто потрековый mp3 заказывал, ссылки в первом посту



Дмитрий вне форума   Ответить с цитированием
Пользователь сказал cпасибо:
bobrovich (30.06.2017)
Старый 30.06.2017, 11:16   #7
ДенисПоПов27
VIP
 

Регистрация: 29.03.2011
Адрес: Где-то в России
Сообщений: 4,370
Сказал(а) спасибо: 7,930
Поблагодарили 2,292 раз(а) в 1,443 сообщениях
ДенисПоПов27 репутация неоспоримаДенисПоПов27 репутация неоспоримаДенисПоПов27 репутация неоспоримаДенисПоПов27 репутация неоспоримаДенисПоПов27 репутация неоспоримаДенисПоПов27 репутация неоспоримаДенисПоПов27 репутация неоспоримаДенисПоПов27 репутация неоспоримаДенисПоПов27 репутация неоспоримаДенисПоПов27 репутация неоспоримаДенисПоПов27 репутация неоспорима
По умолчанию

Ни к чему здесь никакой мэпэ_3!
ДенисПоПов27 вне форума   Ответить с цитированием
Старый 30.06.2017, 20:50   #8
ТОМ
VIP
 

Регистрация: 03.11.2016
Адрес: Воронежская область, Богучарский р-н., село Подколодновка
Сообщений: 3,239
Сказал(а) спасибо: 6,300
Поблагодарили 1,377 раз(а) в 968 сообщениях
ТОМ репутация неоспоримаТОМ репутация неоспоримаТОМ репутация неоспоримаТОМ репутация неоспоримаТОМ репутация неоспоримаТОМ репутация неоспоримаТОМ репутация неоспоримаТОМ репутация неоспоримаТОМ репутация неоспоримаТОМ репутация неоспоримаТОМ репутация неоспорима
По умолчанию

Цитата:
Сообщение от Дмитрий Посмотреть сообщение
Как Вам звук, Господа?
Качаю...Завтра скажу!
ТОМ вне форума   Ответить с цитированием
Старый 30.06.2017, 20:51   #9
ТОМ
VIP
 

Регистрация: 03.11.2016
Адрес: Воронежская область, Богучарский р-н., село Подколодновка
Сообщений: 3,239
Сказал(а) спасибо: 6,300
Поблагодарили 1,377 раз(а) в 968 сообщениях
ТОМ репутация неоспоримаТОМ репутация неоспоримаТОМ репутация неоспоримаТОМ репутация неоспоримаТОМ репутация неоспоримаТОМ репутация неоспоримаТОМ репутация неоспоримаТОМ репутация неоспоримаТОМ репутация неоспоримаТОМ репутация неоспоримаТОМ репутация неоспорима
По умолчанию

Цитата:
Сообщение от Дмитрий Посмотреть сообщение
Для тех, кто потрековый mp3 заказывал, ссылки в первом посту
Палкой их, палкой!!!!
ТОМ вне форума   Ответить с цитированием
Пользователь сказал cпасибо:
ДенисПоПов27 (05.07.2017)
Старый 30.06.2017, 21:02   #10
Дмитрий
Music Group
 
Аватар для Дмитрий
 

Регистрация: 12.12.2008
Адрес: Москва прошлого тысячелетия.
Сообщений: 147,285
Сказал(а) спасибо: 32,632
Поблагодарили 163,278 раз(а) в 59,522 сообщениях
Дмитрий репутация неоспоримаДмитрий репутация неоспоримаДмитрий репутация неоспоримаДмитрий репутация неоспоримаДмитрий репутация неоспоримаДмитрий репутация неоспоримаДмитрий репутация неоспоримаДмитрий репутация неоспоримаДмитрий репутация неоспоримаДмитрий репутация неоспоримаДмитрий репутация неоспорима
По умолчанию



не ... действительно хорошо поёт и звук хороший!
Как раньше, звонкий!
Дмитрий вне форума   Ответить с цитированием
Ответ

Закладки

Опции темы
Опции просмотра

Ваши права в разделе
Вы не можете создавать новые темы
Вы не можете отвечать в темах
Вы не можете прикреплять вложения
Вы не можете редактировать свои сообщения

BB коды Вкл.
Смайлы Вкл.
[IMG] код Вкл.
HTML код Выкл.

Быстрый переход


Часовой пояс GMT, время: 22:44.


Powered by vBulletin® Version 3.8.2
Copyright ©2000 - 2020, Jelsoft Enterprises Ltd. Перевод: zCarot
Rambler's Top100 Республика Татарстан - Каталог сайтов