Все Тут Online

   
Меню сайта:
Главная
Форум
Чат
- Online приложения:
- Игры
- Выбор стиля:
- FAQ
- Для начинающих

Вернуться   Все Тут Online > МАГНИТИЗДАТ (Оцифровки Кассет и Бобин) (lossless) > ПОП МУЗЫКА, Eurodance, Disco (Lossless) > Отечественная

загрузка...
Ответ
 
Опции темы Опции просмотра
Старый 15.04.2017, 22:16   #1
Worldly-wise
VIP
 
Аватар для Worldly-wise
 

Регистрация: 16.09.2011
Адрес: USSR
Сообщений: 3,505
Сказал(а) спасибо: 1,946
Поблагодарили 1,492 раз(а) в 805 сообщениях
Worldly-wise репутация неоспоримаWorldly-wise репутация неоспоримаWorldly-wise репутация неоспоримаWorldly-wise репутация неоспоримаWorldly-wise репутация неоспоримаWorldly-wise репутация неоспоримаWorldly-wise репутация неоспоримаWorldly-wise репутация неоспоримаWorldly-wise репутация неоспоримаWorldly-wise репутация неоспоримаWorldly-wise репутация неоспорима
Сообщение [24/48] Русская сборка [lossless]

загрузка...
Русская сборка



Источник: Technics RS-TR575
Формат: Flac 24/48000
Битрейт аудио: lossless
Программа: Acoustica Premium Edition 6.0
Звуковая карта: Встроенная
Realtek High Definition Audio Driver - 2015
Длительность: 47 мин
Размер архива: 618 Мб
Кассета из личной коллекции.

Ещё один,на мой взгляд интересный сборник с женским вокалом из соседского пакета.


Треклист:

01.Лариса Долина - Ревнуй меня
02.Лариса Долина - Ноль градусов
03.Лариса Долина - До свидания
04.Лариса Долина - Третий звонок
05.Елена Панурова - Наше счастье
06.Елена Панурова - Я вернусь
07.Елена Панурова - На семь бед один ответ
08.Елена Панурова - Как погибла любовь
09.Елена Панурова - Поцелуй дождя
10.Елена Панурова - Не обещай
11.Елена Панурова - Покажи,как ты любишь меня
12.Елена Панурова - Поиграй со мной


CUE
Скрытый текст (вы должны зарегистрироваться или войти под своим логином):
У вас нет прав чтобы видеть скрытый текст, содержащейся здесь.


Скрытый текст (вы должны зарегистрироваться или войти под своим логином):
У вас нет прав чтобы видеть скрытый текст, содержащейся здесь.
__________________

Последний раз редактировалось Саша (beloborod); 17.04.2017 в 15:31.
Worldly-wise вне форума   Ответить с цитированием
4 пользователя(ей) сказали cпасибо:
Владимир 1733 (16.04.2017), александр69 (16.04.2017), Саша (beloborod) (16.04.2017), victor1953 (21.04.2017)
Старый 16.04.2017, 01:23   #2
ДенисПоПов27
VIP
 

Регистрация: 29.03.2011
Сообщений: 1,584
Сказал(а) спасибо: 1,823
Поблагодарили 617 раз(а) в 376 сообщениях
ДенисПоПов27 репутация неоспоримаДенисПоПов27 репутация неоспоримаДенисПоПов27 репутация неоспоримаДенисПоПов27 репутация неоспоримаДенисПоПов27 репутация неоспоримаДенисПоПов27 репутация неоспоримаДенисПоПов27 репутация неоспоримаДенисПоПов27 репутация неоспоримаДенисПоПов27 репутация неоспоримаДенисПоПов27 репутация неоспоримаДенисПоПов27 репутация неоспорима
По умолчанию

Коника! Икс Эр-1-90!!! Кайфовые тоже кассеты были! и 90 и 74 и 60 минутки и 46 минут тоже были)))
А на 2-й стороне что???
ДенисПоПов27 вне форума   Ответить с цитированием
Старый 16.04.2017, 06:35   #3
Worldly-wise
VIP
 
Аватар для Worldly-wise
 

Регистрация: 16.09.2011
Адрес: USSR
Сообщений: 3,505
Сказал(а) спасибо: 1,946
Поблагодарили 1,492 раз(а) в 805 сообщениях
Worldly-wise репутация неоспоримаWorldly-wise репутация неоспоримаWorldly-wise репутация неоспоримаWorldly-wise репутация неоспоримаWorldly-wise репутация неоспоримаWorldly-wise репутация неоспоримаWorldly-wise репутация неоспоримаWorldly-wise репутация неоспоримаWorldly-wise репутация неоспоримаWorldly-wise репутация неоспоримаWorldly-wise репутация неоспорима
По умолчанию

Цитата:
Сообщение от ДенисПоПов27 Посмотреть сообщение
Коника! Икс Эр-1-90!!! Кайфовые тоже кассеты были! и 90 и 74 и 60 минутки и 46 минут тоже были)))
А на 2-й стороне что???
Не помню,что-то неважное..
__________________
Worldly-wise вне форума   Ответить с цитированием
Старый 16.04.2017, 06:45   #4
александр69
VIP
 

Регистрация: 09.05.2013
Адрес: Берёзки
Сообщений: 365
Сказал(а) спасибо: 1,952
Поблагодарили 519 раз(а) в 246 сообщениях
александр69 репутация неоспоримаалександр69 репутация неоспоримаалександр69 репутация неоспоримаалександр69 репутация неоспоримаалександр69 репутация неоспоримаалександр69 репутация неоспоримаалександр69 репутация неоспоримаалександр69 репутация неоспоримаалександр69 репутация неоспоримаалександр69 репутация неоспоримаалександр69 репутация неоспорима
По умолчанию

Worldly-wise,спасибо!
Треклист:
01.Лариса Долина - Ревнуй меня
02.Лариса Долина - Ноль градусов
03.Лариса Долина - До свидания
04.Лариса Долина - Третий звонок
05.Елена Панурова - Наше счастье
06.Елена Панурова - Я вернусь
07.Елена Панурова - На семь бед один ответ
08.Елена Панурова - Как погибла любовь
09.Елена Панурова - Поцелуй дождя
10.Елена Панурова - Не обещай
11.Елена Панурова - Покажи,как ты любишь меня
12.Елена Панурова - Поиграй со мной
александр69 вне форума   Ответить с цитированием
2 пользователя(ей) сказали cпасибо:
Саша (beloborod) (17.04.2017), Worldly-wise (16.04.2017)
Старый 16.04.2017, 07:13   #5
Worldly-wise
VIP
 
Аватар для Worldly-wise
 

Регистрация: 16.09.2011
Адрес: USSR
Сообщений: 3,505
Сказал(а) спасибо: 1,946
Поблагодарили 1,492 раз(а) в 805 сообщениях
Worldly-wise репутация неоспоримаWorldly-wise репутация неоспоримаWorldly-wise репутация неоспоримаWorldly-wise репутация неоспоримаWorldly-wise репутация неоспоримаWorldly-wise репутация неоспоримаWorldly-wise репутация неоспоримаWorldly-wise репутация неоспоримаWorldly-wise репутация неоспоримаWorldly-wise репутация неоспоримаWorldly-wise репутация неоспорима
По умолчанию

александр69, Спасибо!
__________________
Worldly-wise вне форума   Ответить с цитированием
Пользователь сказал cпасибо:
александр69 (16.04.2017)
Старый 17.04.2017, 15:33   #6
Саша (beloborod)
Модератор
 
Аватар для Саша (beloborod)
 

Регистрация: 30.07.2012
Адрес: Сибирь
Сообщений: 1,533
Сказал(а) спасибо: 4,337
Поблагодарили 6,526 раз(а) в 1,024 сообщениях
Саша (beloborod) репутация неоспоримаСаша (beloborod) репутация неоспоримаСаша (beloborod) репутация неоспоримаСаша (beloborod) репутация неоспоримаСаша (beloborod) репутация неоспоримаСаша (beloborod) репутация неоспоримаСаша (beloborod) репутация неоспоримаСаша (beloborod) репутация неоспоримаСаша (beloborod) репутация неоспоримаСаша (beloborod) репутация неоспоримаСаша (beloborod) репутация неоспорима
По умолчанию

Валера,спасибо большое!!!

Код:
 REM GENRE "ПОП"
REM DATE ????
REM COMMENT "Оцифровка - Worldly-wise"
TITLE "Магнитоальбом"
PERFORMER "Лариса Долина & Елена Панурова"
FILE "Русск.сборка.flac" WAVE
  TRACK 01 AUDIO
TITLE "Ревнуй меня"
PERFORMER "Лариса Долина"
    INDEX 01 00:04:43
  TRACK 02 AUDIO
TITLE "Ноль градусов"
PERFORMER "Лариса Долина"
    INDEX 01 03:56:00
  TRACK 03 AUDIO
TITLE "До свидания"
PERFORMER "Лариса Долина"
    INDEX 01 07:36:28
  TRACK 04 AUDIO
TITLE "Третий звонок"
PERFORMER "Лариса Долина"
    INDEX 01 11:04:66
  TRACK 05 AUDIO
TITLE "Наше счастье"
PERFORMER "Елена Панурова"
    INDEX 01 14:31:21
  TRACK 06 AUDIO
TITLE "Я вернусь"
PERFORMER "Елена Панурова"
    INDEX 01 19:26:32
  TRACK 07 AUDIO
TITLE "На семь бед один ответ"
PERFORMER "Елена Панурова"
    INDEX 01 23:31:01
  TRACK 08 AUDIO
TITLE "Как погибла любовь"
PERFORMER "Елена Панурова"
    INDEX 01 27:51:66
  TRACK 09 AUDIO
TITLE "Поцелуй дождя"
PERFORMER "Елена Панурова"
    INDEX 01 32:13:21
  TRACK 10 AUDIO
TITLE "Не обещай"
PERFORMER "Елена Панурова"
    INDEX 01 36:29:11
  TRACK 11 AUDIO
TITLE "Покажи,как ты любишь меня"
PERFORMER "Елена Панурова"
    INDEX 01 40:25:49
  TRACK 12 AUDIO
TITLE "Поиграй со мной"
PERFORMER "Елена Панурова"
    INDEX 01 44:10:42
Саша (beloborod) вне форума   Ответить с цитированием
2 пользователя(ей) сказали cпасибо:
александр69 (17.04.2017), Worldly-wise (17.04.2017)
Старый 17.04.2017, 15:51   #7
Worldly-wise
VIP
 
Аватар для Worldly-wise
 

Регистрация: 16.09.2011
Адрес: USSR
Сообщений: 3,505
Сказал(а) спасибо: 1,946
Поблагодарили 1,492 раз(а) в 805 сообщениях
Worldly-wise репутация неоспоримаWorldly-wise репутация неоспоримаWorldly-wise репутация неоспоримаWorldly-wise репутация неоспоримаWorldly-wise репутация неоспоримаWorldly-wise репутация неоспоримаWorldly-wise репутация неоспоримаWorldly-wise репутация неоспоримаWorldly-wise репутация неоспоримаWorldly-wise репутация неоспоримаWorldly-wise репутация неоспорима
По умолчанию

Саша (beloborod), Спасибо!
__________________
Worldly-wise вне форума   Ответить с цитированием
Ответ

Закладки

Опции темы
Опции просмотра

Ваши права в разделе
Вы не можете создавать новые темы
Вы не можете отвечать в темах
Вы не можете прикреплять вложения
Вы не можете редактировать свои сообщения

BB коды Вкл.
Смайлы Вкл.
[IMG] код Вкл.
HTML код Выкл.

Быстрый переход


Часовой пояс GMT, время: 14:07.


Powered by vBulletin® Version 3.8.2
Copyright ©2000 - 2017, Jelsoft Enterprises Ltd. Перевод: zCarot
Rambler's Top100 Республика Татарстан - Каталог сайтов