Все Тут Online

   
Меню сайта:
Главная
Форум
Чат
- Online приложения:
- Игры
- Выбор стиля:
- FAQ
- Для начинающих

Вернуться   Все Тут Online > CD (Компакт диски) Lossless - МУЗЫКА БЕЗ ПОТЕРИ КАЧЕСТВА > РОК МУЗЫКА (Lossless) > Зарубежный Rock (lossless)

загрузка...
Ответ
 
Опции темы Опции просмотра
Старый 16.04.2017, 03:40   #1
shurele
VIP
 
Аватар для shurele
 

Регистрация: 09.04.2016
Адрес: Германия
Сообщений: 564
Сказал(а) спасибо: 81
Поблагодарили 1,368 раз(а) в 340 сообщениях
shurele репутация неоспоримаshurele репутация неоспоримаshurele репутация неоспоримаshurele репутация неоспоримаshurele репутация неоспоримаshurele репутация неоспоримаshurele репутация неоспоримаshurele репутация неоспоримаshurele репутация неоспоримаshurele репутация неоспоримаshurele репутация неоспорима
Отправить сообщение для shurele с помощью Skype™
По умолчанию Shocking Blue ‎– The Golden Hits

загрузка...
Shocking Blue

The Golden Hits



Сборник золотых хитов легендарного голландского квартета.
Shocking Blue была голландской рок-группой, сформированной в Гааге в 1967 году. Группа создала много хитов психоделического рока в течение эры движений контркультуры в течение 1960-х и в начале 1970-х, включая "Never Marry a Railroad Man", "Mighty Joe", "Love Buzz", "Blossom Lady", "Inkpot" и "Venus", последняя композиция стала их самым большим хитом, который занял первое место на американском Billboard Hot 100 и во многих других стран в течение 1969 и 1970 г.г. Группа продала к 1973 году 13.5 миллионов дисков и распалась в 1974, когда хиппи, власть цветов и другие движения контркультуры во всем мире начали терять популярность в середине 1970-х.

Shocking Blue - Википедия


Альбом: The Golden Hits
Исполнитель: Shocking Blue
Год выпуска: 1995
Время звучания: 00:41:44
Жанр: Pop Rock, Classic Rock, Psychedelic Rock
Формат: FLAC (tracks)/ MP3 (320) (tracks)
Качество: Lossless
Количество треков: 14
Размер архива: flac - 267 Mb; mp3 (320kbps) - 99 Mb
Язык релиза: английский

Содержание:

1 Venus 3:00
2 Mighty Joe 3:06
3 Never Marry A Railroad Man 3:01
4 Blossom Lady 3:29
5 Inkpot 2:37
6 Oh Lord 2:27
7 Rock In The Sea 2:56
8 Eve And The Apple 2:38
9 I Saw You In June 2:29
10 Time Slips Away 2:36
11 I'll Write Your Name Through The Fire 2:56
12 Love Buzz 3:42
13 Boll Wevil 2:38
14 The Butterfly And I 4:00





Код:
Exact Audio Copy V1.0 beta 3 from 29. August 2011

EAC extraction logfile from 13. April 2017, 8:07

Shocking Blue / The Golden Hits

Used drive  : TSSTcorpCDDVDW SH-216DB   Adapter: 0  ID: 0

Read mode               : Secure
Utilize accurate stream : Yes
Defeat audio cache      : Yes
Make use of C2 pointers : No

Read offset correction                      : 6
Overread into Lead-In and Lead-Out          : No
Fill up missing offset samples with silence : Yes
Delete leading and trailing silent blocks   : No
Null samples used in CRC calculations       : Yes
Used interface                              : Native Win32 interface for Win NT & 2000

Used output format              : User Defined Encoder
Selected bitrate                : 1024 kBit/s
Quality                         : High
Add ID3 tag                     : No
Command line compressor         : C:\Program Files (x86)\Exact Audio Copy\Flac\flac.exe
Additional command line options : -V -8 -T "Date=%year%" -T "Genre=%genre%" %source%


TOC of the extracted CD

     Track |   Start  |  Length  | Start sector | End sector 
    ---------------------------------------------------------
        1  |  0:00.33 |  3:02.62 |        33    |    13744   
        2  |  3:03.20 |  3:08.25 |     13745    |    27869   
        3  |  6:11.45 |  3:03.00 |     27870    |    41594   
        4  |  9:14.45 |  3:30.25 |     41595    |    57369   
        5  | 12:44.70 |  2:39.50 |     57370    |    69344   
        6  | 15:24.45 |  2:29.00 |     69345    |    80519   
        7  | 17:53.45 |  2:58.13 |     80520    |    93882   
        8  | 20:51.58 |  2:40.50 |     93883    |   105932   
        9  | 23:32.33 |  2:31.12 |    105933    |   117269   
       10  | 26:03.45 |  2:23.25 |    117270    |   128019   
       11  | 28:26.70 |  2:55.00 |    128020    |   141144   
       12  | 31:21.70 |  3:44.00 |    141145    |   157944   
       13  | 35:05.70 |  2:40.00 |    157945    |   169944   
       14  | 37:45.70 |  3:59.05 |    169945    |   187874   


Range status and errors

Selected range

     Filename L:\Private\My Audio Ripps\ CD - RIPS\Shocking Blue - The Golden Hits\Shocking Blue - The Golden Hits.wav

     Peak level 99.2 %
     Extraction speed 2.4 X
     Range quality 100.0 %
     Test CRC 1137A400
     Copy CRC 1137A400
     Copy OK

No errors occurred

 
AccurateRip summary
 
Track  1  accurately ripped (confidence 7)  [F3834C00]  (AR v2)
Track  2  accurately ripped (confidence 6)  [4A3BAC17]  (AR v2)
Track  3  accurately ripped (confidence 6)  [5C366976]  (AR v2)
Track  4  accurately ripped (confidence 6)  [57520B4F]  (AR v2)
Track  5  accurately ripped (confidence 6)  [25C489D5]  (AR v2)
Track  6  accurately ripped (confidence 6)  [9A511352]  (AR v2)
Track  7  accurately ripped (confidence 6)  [C7C47B77]  (AR v2)
Track  8  accurately ripped (confidence 6)  [6F3F510D]  (AR v2)
Track  9  accurately ripped (confidence 6)  [C0A5E622]  (AR v2)
Track 10  accurately ripped (confidence 6)  [F9F7B5BA]  (AR v2)
Track 11  accurately ripped (confidence 6)  [5D4397A3]  (AR v2)
Track 12  accurately ripped (confidence 6)  [25E7E72F]  (AR v2)
Track 13  accurately ripped (confidence 6)  [21D38D07]  (AR v2)
Track 14  accurately ripped (confidence 6)  [119020DB]  (AR v2)
 
All tracks accurately ripped

End of status report

==== Log checksum 80068D79E68405DB68F816B357DF16BF5B6950954B75319A38131E26790ED4FA ====

Phonographic Copyright (p) – Red Bullet Productions B.V.
Copyright (c) – Red Bullet Productions B.V.
Marketed By – Standard Creatieve Communicatie B.V.
Distributed By – Standard Creatieve Communicatie B.V.
Licensed From – Red Bullet Productions B.V.
Published By – Dayglow Music
Published By – NANADA Music

Written-By – Robbie Van Leeuwen

Licensed from: Red Bullet Productions B.V.
This compilation (p) and (c) 1995: Red Bullet Productions B.V.
Published by: Dayglow Music-Nanada Music.

Rights Society: STEMRA

Рип - мой



Страна: Netherlands
Издатель (лейбл): AZZA ‎– TP 3791-430948
Формат: FLAC / MP3 (320)
Параметры: CD, Compilation, Rip, image, log, cue
Источник: СД из собственной коллекции


Скрытый текст (вы должны зарегистрироваться или войти под своим логином):
У вас нет прав чтобы видеть скрытый текст, содержащейся здесь.
__________________
Ccылка на тему: Как скачивать с Яндекс диска!

Чтобы быстро скачать чужой опубликованный файл, сохраните его на свой Диск. На вашем Диске файл окажется мгновенно, а свои файлы вы всегда можете скачать без ограничений.
shurele вне форума   Ответить с цитированием
11 пользователя(ей) сказали cпасибо:
57nsm24 (16.04.2017), ГеннадийС161 (16.04.2017), дрон (22.04.2017), cthutq_1956 (16.04.2017), GNUS59 (21.04.2017), Максkg (16.04.2017), kopilovoleg (16.04.2017), Pensioneer (22.04.2017), piff62 (16.04.2017), ser (17.04.2017), zitrus (16.04.2017)
Старый 16.04.2017, 17:14   #2
nfisher
Местный
 
Аватар для nfisher
 

Регистрация: 05.12.2014
Сообщений: 140
Сказал(а) спасибо: 483
Поблагодарили 159 раз(а) в 54 сообщениях
nfisher - просто великолепная личностьnfisher - просто великолепная личностьnfisher - просто великолепная личностьnfisher - просто великолепная личностьnfisher - просто великолепная личностьnfisher - просто великолепная личностьnfisher - просто великолепная личность
По умолчанию

Если кто не в курсе: прообразом для песни "Venus" стала песня "The Banjo Song" группы The Big 3, которая является кавер-версией песни "Oh! Susanna" (1848 г.)
nfisher вне форума   Ответить с цитированием
3 пользователя(ей) сказали cпасибо:
Валера123 (17.04.2017), cthutq_1956 (16.04.2017), ser (17.04.2017)
Ответ

Закладки

Опции темы
Опции просмотра

Ваши права в разделе
Вы не можете создавать новые темы
Вы не можете отвечать в темах
Вы не можете прикреплять вложения
Вы не можете редактировать свои сообщения

BB коды Вкл.
Смайлы Вкл.
[IMG] код Вкл.
HTML код Выкл.

Быстрый переход


Часовой пояс GMT, время: 14:01.


Powered by vBulletin® Version 3.8.2
Copyright ©2000 - 2017, Jelsoft Enterprises Ltd. Перевод: zCarot
Rambler's Top100 Республика Татарстан - Каталог сайтов