Все Тут Online

   
Меню сайта:
Главная
Форум
Чат
- Online приложения:
- Игры
- Выбор стиля:
- FAQ
- Для начинающих

Вернуться   Все Тут Online > МАГНИТИЗДАТ (Оцифровки Кассет и Бобин) (lossless) > РОК МУЗЫКА (Lossless) > Отечественная

загрузка...
Ответ
 
Опции темы Опции просмотра
Старый 17.04.2017, 16:58   #11
Саша (beloborod)
Модератор
 
Аватар для Саша (beloborod)
 

Регистрация: 30.07.2012
Адрес: Сибирь
Сообщений: 1,533
Сказал(а) спасибо: 4,337
Поблагодарили 6,526 раз(а) в 1,024 сообщениях
Саша (beloborod) репутация неоспоримаСаша (beloborod) репутация неоспоримаСаша (beloborod) репутация неоспоримаСаша (beloborod) репутация неоспоримаСаша (beloborod) репутация неоспоримаСаша (beloborod) репутация неоспоримаСаша (beloborod) репутация неоспоримаСаша (beloborod) репутация неоспоримаСаша (beloborod) репутация неоспоримаСаша (beloborod) репутация неоспоримаСаша (beloborod) репутация неоспорима
По умолчанию

загрузка...
Валера,Спасибо большое!!!

Код:
 REM GENRE "Рок"
REM DATE 1998
REM COMMENT "Оцифровка - Worldly-wise"
TITLE "Гранатовый альбом"
PERFORMER "Рок-группа Сплин"
FILE "Сторона1.flac" WAVE
  TRACK 01 AUDIO
TITLE "Выхода нет"
PERFORMER "Рок-группа Сплин"
    INDEX 01 00:03:00
  TRACK 02 AUDIO
TITLE "Орбит без сахара"
PERFORMER "Рок-группа Сплин"
    INDEX 01 03:45:26
  TRACK 03 AUDIO
TITLE "Весь этот бред"
PERFORMER "Рок-группа Сплин"
    INDEX 01 06:01:08
  TRACK 04 AUDIO
TITLE "Достань гранату"
PERFORMER "Рок-группа Сплин"
    INDEX 01 09:03:38
  TRACK 05 AUDIO
TITLE "Приходи"
PERFORMER "Рок-группа Сплин"
    INDEX 01 13:08:72
  TRACK 06 AUDIO
TITLE "Свет горел всю ночь"
PERFORMER "Рок-группа Сплин"
    INDEX 01 17:08:09
  TRACK 07 AUDIO
TITLE "Люся сидит дома"
PERFORMER "Рок-группа Сплин"
    INDEX 01 19:36:00
  TRACK 08 AUDIO
TITLE "Бог устал нас любить"
PERFORMER "Рок-группа Сплин"
    INDEX 01 23:29:33
  TRACK 09 AUDIO
TITLE "Катись, колесо"
PERFORMER "Рок-группа Сплин"
    INDEX 01 25:57:25
  TRACK 10 AUDIO
TITLE "Коктейли третьей мировой"
PERFORMER "Рок-группа Сплин"
    INDEX 01 28:41:37
  TRACK 11 AUDIO
TITLE "Джим"
PERFORMER "Рок-группа Сплин"
    INDEX 01 31:29:74
  TRACK 12 AUDIO
TITLE "Мария и Хуана"
PERFORMER "Рок-группа Сплин"
    INDEX 01 34:12:24
Код:
 REM GENRE "ПОП"
REM DATE 1998
REM COMMENT "Оцифровка - Worldly-wise"
TITLE "Танцуем?"
PERFORMER "гр.Русский Размер"
FILE "Сторона2.flac" WAVE
  TRACK 01 AUDIO
TITLE "Нормальный вечер"
PERFORMER "гр.Русский Размер"
    INDEX 01 00:04:00
  TRACK 02 AUDIO
TITLE "Звони"
PERFORMER "гр.Русский Размер"
    INDEX 01 04:31:35
  TRACK 03 AUDIO
TITLE "Время как снег"
PERFORMER "гр.Русский Размер"
    INDEX 01 08:54:23
  TRACK 04 AUDIO
TITLE "Вот так"
PERFORMER "гр.Русский Размер"
    INDEX 01 13:06:39
  TRACK 05 AUDIO
TITLE "Твой свет"
PERFORMER "гр.Русский Размер"
    INDEX 01 17:06:11
  TRACK 06 AUDIO
TITLE "Там,где играет музыка"
PERFORMER "гр.Русский Размер"
    INDEX 01 21:33:50
  TRACK 07 AUDIO
TITLE "Двигайся"
PERFORMER "гр.Русский Размер"
    INDEX 01 25:44:26
  TRACK 08 AUDIO
TITLE "Звезда разлуки"
PERFORMER "гр.Русский Размер"
    INDEX 01 29:41:52
  TRACK 09 AUDIO
TITLE "Вот так"
PERFORMER "гр.Русский Размер"
    INDEX 01 33:46:46
  TRACK 10 AUDIO
TITLE "Только вперёд"
PERFORMER "гр.Русский Размер"
    INDEX 01 38:12:69
  TRACK 11 AUDIO
TITLE "Лети"
PERFORMER "гр.Русский Размер"
    INDEX 01 42:18:43
Саша (beloborod) вне форума   Ответить с цитированием
3 пользователя(ей) сказали cпасибо:
ДенисПоПов27 (17.04.2017), александр69 (17.04.2017), Worldly-wise (17.04.2017)
Ответ

Закладки

Опции темы
Опции просмотра

Ваши права в разделе
Вы не можете создавать новые темы
Вы не можете отвечать в темах
Вы не можете прикреплять вложения
Вы не можете редактировать свои сообщения

BB коды Вкл.
Смайлы Вкл.
[IMG] код Вкл.
HTML код Выкл.

Быстрый переход


Часовой пояс GMT, время: 14:07.


Powered by vBulletin® Version 3.8.2
Copyright ©2000 - 2017, Jelsoft Enterprises Ltd. Перевод: zCarot
Rambler's Top100 Республика Татарстан - Каталог сайтов