Все Тут Online

   
Меню сайта:
Главная
Форум
Чат
- Online приложения:
- Игры
- Выбор стиля:
- FAQ
- Для начинающих

Вернуться   Все Тут Online > МАГНИТИЗДАТ (Оцифровки Кассет и Бобин) (lossless) > ПОП МУЗЫКА, Eurodance, Disco (Lossless) > Отечественная

загрузка...
Ответ
 
Опции темы Опции просмотра
Старый 17.04.2017, 11:25   #1
Worldly-wise
VIP
 
Аватар для Worldly-wise
 

Регистрация: 16.09.2011
Адрес: USSR
Сообщений: 3,537
Сказал(а) спасибо: 1,978
Поблагодарили 1,555 раз(а) в 827 сообщениях
Worldly-wise репутация неоспоримаWorldly-wise репутация неоспоримаWorldly-wise репутация неоспоримаWorldly-wise репутация неоспоримаWorldly-wise репутация неоспоримаWorldly-wise репутация неоспоримаWorldly-wise репутация неоспоримаWorldly-wise репутация неоспоримаWorldly-wise репутация неоспоримаWorldly-wise репутация неоспоримаWorldly-wise репутация неоспорима
Сообщение [24/48] Дискотека Бездна 37 (2004) [lossless]

загрузка...
Дискотека Бездна 37 (2004)



Год выпуска: 2004
Источник: Technics RS-TR575
Формат: Flac 24/48000
Битрейт аудио: lossless
Программа: Acoustica Premium Edition 6.0
Звуковая карта: Встроенная
Realtek High Definition Audio Driver - 2015
Длительность: 36 + 36 мин
Размер архива: 942 Мб
Кассета из личной коллекции.Сильно потёрта,расшифровал что смог.



Треклист:

01.P-Xan
02.Voodo..
03.-?
04.Asir..
05.Парадокс & Joni faa..
06.Dino
07.DJ Koketka
08.М.Сагаипова
09.Серёга
10.Hasmik
11.Мario winn
12.Евро
13.Frank
14.Краски
15.A.Kazimova
16.On-line
17.Nauzika
18.Фейсконтроль
19.Amr Diab
20.Анжелика
21.Ctack Attack
22.А.Романов


CUE
Скрытый текст (вы должны зарегистрироваться или войти под своим логином):
У вас нет прав чтобы видеть скрытый текст, содержащейся здесь.


Скрытый текст (вы должны зарегистрироваться или войти под своим логином):
У вас нет прав чтобы видеть скрытый текст, содержащейся здесь.
__________________

Последний раз редактировалось Саша (beloborod); 17.04.2017 в 16:15.
Worldly-wise вне форума   Ответить с цитированием
2 пользователя(ей) сказали cпасибо:
ДенисПоПов27 (17.04.2017), Саша (beloborod) (17.04.2017)
Старый 17.04.2017, 15:20   #2
ДенисПоПов27
VIP
 

Регистрация: 29.03.2011
Сообщений: 2,017
Сказал(а) спасибо: 2,562
Поблагодарили 876 раз(а) в 521 сообщениях
ДенисПоПов27 репутация неоспоримаДенисПоПов27 репутация неоспоримаДенисПоПов27 репутация неоспоримаДенисПоПов27 репутация неоспоримаДенисПоПов27 репутация неоспоримаДенисПоПов27 репутация неоспоримаДенисПоПов27 репутация неоспоримаДенисПоПов27 репутация неоспоримаДенисПоПов27 репутация неоспоримаДенисПоПов27 репутация неоспоримаДенисПоПов27 репутация неоспорима
По умолчанию

Цитата:
Сообщение от Worldly-wise Посмотреть сообщение
Сильно потёрта,расшифровал что смог.
Разберёмся!
ДенисПоПов27 вне форума   Ответить с цитированием
Пользователь сказал cпасибо:
Саша (beloborod) (17.04.2017)
Старый 17.04.2017, 15:32   #3
Worldly-wise
VIP
 
Аватар для Worldly-wise
 

Регистрация: 16.09.2011
Адрес: USSR
Сообщений: 3,537
Сказал(а) спасибо: 1,978
Поблагодарили 1,555 раз(а) в 827 сообщениях
Worldly-wise репутация неоспоримаWorldly-wise репутация неоспоримаWorldly-wise репутация неоспоримаWorldly-wise репутация неоспоримаWorldly-wise репутация неоспоримаWorldly-wise репутация неоспоримаWorldly-wise репутация неоспоримаWorldly-wise репутация неоспоримаWorldly-wise репутация неоспоримаWorldly-wise репутация неоспоримаWorldly-wise репутация неоспорима
По умолчанию

Цитата:
Сообщение от ДенисПоПов27 Посмотреть сообщение
Разберёмся!
DJ Koketka - Чего стоим -то, юноши?!Давай.давай.. В последний раз на сельской дискотеке был когда "партизанил" в 1987 году.Прикольно было..мужики поддатые под 50-т лет,в солдатской форме х/б и кирзачах,среди молодёжи под "Ласковый май" зажигали.))
__________________

Последний раз редактировалось Worldly-wise; 17.04.2017 в 15:49.
Worldly-wise вне форума   Ответить с цитированием
3 пользователя(ей) сказали cпасибо:
ДенисПоПов27 (17.04.2017), Алексей 69 (17.04.2017), Саша (beloborod) (17.04.2017)
Старый 17.04.2017, 16:18   #4
Саша (beloborod)
Модератор
 
Аватар для Саша (beloborod)
 

Регистрация: 30.07.2012
Адрес: Сибирь
Сообщений: 1,622
Сказал(а) спасибо: 4,879
Поблагодарили 7,026 раз(а) в 1,096 сообщениях
Саша (beloborod) репутация неоспоримаСаша (beloborod) репутация неоспоримаСаша (beloborod) репутация неоспоримаСаша (beloborod) репутация неоспоримаСаша (beloborod) репутация неоспоримаСаша (beloborod) репутация неоспоримаСаша (beloborod) репутация неоспоримаСаша (beloborod) репутация неоспоримаСаша (beloborod) репутация неоспоримаСаша (beloborod) репутация неоспоримаСаша (beloborod) репутация неоспорима
По умолчанию

Валера,Спасибо большое!!!

Код:
 REM GENRE "ПОП"
REM DATE 2004
REM COMMENT "Оцифровка - Worldly-wise"
TITLE "Дискотека Бездна № 37"
PERFORMER "Сборник"
FILE "Сторона1.flac" WAVE
  TRACK 01 AUDIO
TITLE ""
PERFORMER "P-Xan"
    INDEX 01 00:04:40
  TRACK 02 AUDIO
TITLE ""
PERFORMER "Voodo.."
    INDEX 01 03:28:12
  TRACK 03 AUDIO
TITLE ""
PERFORMER "???"
    INDEX 01 06:38:68
  TRACK 04 AUDIO
TITLE ""
PERFORMER "Asir.."
    INDEX 01 09:59:68
  TRACK 05 AUDIO
TITLE ""
PERFORMER "Парадокс & Joni faa.."
    INDEX 01 12:40:54
  TRACK 06 AUDIO
TITLE ""
PERFORMER "Dino"
    INDEX 01 15:43:42
  TRACK 07 AUDIO
TITLE ""
PERFORMER "DJ Koketka"
    INDEX 01 18:34:28
  TRACK 08 AUDIO
TITLE ""
PERFORMER "М.Сагаипова"
    INDEX 01 21:54:11
  TRACK 09 AUDIO
TITLE ""
PERFORMER "Серёга"
    INDEX 01 24:55:38
  TRACK 10 AUDIO
TITLE ""
PERFORMER "Hasmik"
    INDEX 01 28:39:56
  TRACK 11 AUDIO
TITLE ""
PERFORMER "Мario winn"
    INDEX 01 32:23:61
FILE "Сторона2.flac" WAVE
  TRACK 12 AUDIO
TITLE ""
PERFORMER "Евро"
    INDEX 01 00:04:40
  TRACK 13 AUDIO
TITLE ""
PERFORMER "Frank"
    INDEX 01 03:28:03
  TRACK 14 AUDIO
TITLE ""
PERFORMER "Краски"
    INDEX 01 06:27:71
  TRACK 15 AUDIO
TITLE ""
PERFORMER "A.Kazimova"
    INDEX 01 09:44:62
  TRACK 16 AUDIO
TITLE ""
PERFORMER "On-line"
    INDEX 01 13:38:53
  TRACK 17 AUDIO
TITLE ""
PERFORMER "Nauzika"
    INDEX 01 16:39:48
  TRACK 18 AUDIO
TITLE ""
PERFORMER "Фейсконтроль"
    INDEX 01 19:31:33
  TRACK 19 AUDIO
TITLE ""
PERFORMER "Amr Diab"
    INDEX 01 22:40:38
  TRACK 20 AUDIO
TITLE ""
PERFORMER "Анжелика"
    INDEX 01 26:35:40
  TRACK 21 AUDIO
TITLE ""
PERFORMER "Ctack Attack"
    INDEX 01 29:44:38
  TRACK 22 AUDIO
TITLE ""
PERFORMER "А.Романов"
    INDEX 01 33:11:21
Саша (beloborod) вне форума   Ответить с цитированием
Пользователь сказал cпасибо:
Worldly-wise (17.04.2017)
Старый 17.04.2017, 16:50   #5
Worldly-wise
VIP
 
Аватар для Worldly-wise
 

Регистрация: 16.09.2011
Адрес: USSR
Сообщений: 3,537
Сказал(а) спасибо: 1,978
Поблагодарили 1,555 раз(а) в 827 сообщениях
Worldly-wise репутация неоспоримаWorldly-wise репутация неоспоримаWorldly-wise репутация неоспоримаWorldly-wise репутация неоспоримаWorldly-wise репутация неоспоримаWorldly-wise репутация неоспоримаWorldly-wise репутация неоспоримаWorldly-wise репутация неоспоримаWorldly-wise репутация неоспоримаWorldly-wise репутация неоспоримаWorldly-wise репутация неоспорима
По умолчанию

Саша (beloborod), Спасибо!
__________________
Worldly-wise вне форума   Ответить с цитированием
Пользователь сказал cпасибо:
Саша (beloborod) (17.04.2017)
Ответ

Закладки

Опции темы
Опции просмотра

Ваши права в разделе
Вы не можете создавать новые темы
Вы не можете отвечать в темах
Вы не можете прикреплять вложения
Вы не можете редактировать свои сообщения

BB коды Вкл.
Смайлы Вкл.
[IMG] код Вкл.
HTML код Выкл.

Быстрый переход


Часовой пояс GMT, время: 01:40.


Powered by vBulletin® Version 3.8.2
Copyright ©2000 - 2017, Jelsoft Enterprises Ltd. Перевод: zCarot
Rambler's Top100 Республика Татарстан - Каталог сайтов