Все Тут Online

   
Меню сайта:
Главная
Форум
Чат
- Online приложения:
- Игры
- Выбор стиля:
- FAQ
- Для начинающих

Вернуться   Все Тут Online > МАГНИТИЗДАТ (Оцифровки Кассет и Бобин) (lossless) > ПОП МУЗЫКА, Eurodance, Disco (Lossless) > Отечественная

загрузка...
Ответ
 
Опции темы Опции просмотра
Старый 19.04.2017, 14:35   #11
Worldly-wise
VIP
 
Аватар для Worldly-wise
 

Регистрация: 16.09.2011
Адрес: USSR
Сообщений: 3,537
Сказал(а) спасибо: 1,978
Поблагодарили 1,555 раз(а) в 827 сообщениях
Worldly-wise репутация неоспоримаWorldly-wise репутация неоспоримаWorldly-wise репутация неоспоримаWorldly-wise репутация неоспоримаWorldly-wise репутация неоспоримаWorldly-wise репутация неоспоримаWorldly-wise репутация неоспоримаWorldly-wise репутация неоспоримаWorldly-wise репутация неоспоримаWorldly-wise репутация неоспоримаWorldly-wise репутация неоспорима
По умолчанию

загрузка...
александр69, Спасибо!
__________________
Worldly-wise вне форума   Ответить с цитированием
Пользователь сказал cпасибо:
александр69 (19.04.2017)
Старый 19.04.2017, 14:55   #12
александр69
VIP
 

Регистрация: 09.05.2013
Адрес: Берёзки
Сообщений: 406
Сказал(а) спасибо: 2,117
Поблагодарили 613 раз(а) в 285 сообщениях
александр69 репутация неоспоримаалександр69 репутация неоспоримаалександр69 репутация неоспоримаалександр69 репутация неоспоримаалександр69 репутация неоспоримаалександр69 репутация неоспоримаалександр69 репутация неоспоримаалександр69 репутация неоспоримаалександр69 репутация неоспоримаалександр69 репутация неоспоримаалександр69 репутация неоспорима
По умолчанию

Цитата:
Сообщение от Алексей 69 Посмотреть сообщение
Круто - александр69...!!! Сразу видно знатока исполнителей Русской попсы 80-х - 90-х по четко составленому треклисту...!!!
Да нет Алексей,я не любитель попсы и не знаток.Просто мне нравится это дело - определять исполнителей.Слушаю я совсем другую музыку.
александр69 вне форума   Ответить с цитированием
5 пользователя(ей) сказали cпасибо:
ДенисПоПов27 (19.04.2017), Алексей 69 (19.04.2017), Дмитрий (19.04.2017), Саша (beloborod) (22.04.2017), Worldly-wise (19.04.2017)
Старый 22.04.2017, 13:43   #13
Саша (beloborod)
Модератор
 
Аватар для Саша (beloborod)
 

Регистрация: 30.07.2012
Адрес: Сибирь
Сообщений: 1,622
Сказал(а) спасибо: 4,879
Поблагодарили 7,026 раз(а) в 1,096 сообщениях
Саша (beloborod) репутация неоспоримаСаша (beloborod) репутация неоспоримаСаша (beloborod) репутация неоспоримаСаша (beloborod) репутация неоспоримаСаша (beloborod) репутация неоспоримаСаша (beloborod) репутация неоспоримаСаша (beloborod) репутация неоспоримаСаша (beloborod) репутация неоспоримаСаша (beloborod) репутация неоспоримаСаша (beloborod) репутация неоспоримаСаша (beloborod) репутация неоспорима
По умолчанию

Валера,спасибо большое!!!

Код:
 REM GENRE "ПОП"
REM DATE Рубеж 90-2000-х
REM COMMENT "Оцифровка - Worldly-wise"
TITLE "Разное"
PERFORMER "Сборник российской эстрады"
FILE "Сторона1.flac" WAVE
  TRACK 01 AUDIO
TITLE "Демон"
PERFORMER "Сюзанна Тироян"
    INDEX 01 00:03:00
  TRACK 02 AUDIO
TITLE "Капитан"
PERFORMER "Татьяна Овсиенко"
    INDEX 01 04:18:19
  TRACK 03 AUDIO
TITLE "Упала шляпа"
PERFORMER "На-На"
    INDEX 01 07:43:01
  TRACK 04 AUDIO
TITLE "Джинсовые мальчики"
PERFORMER "Бэтмен"
    INDEX 01 11:00:44
  TRACK 05 AUDIO
TITLE "Ван Моо"
PERFORMER "Ван Моо"
    INDEX 01 14:15:71
  TRACK 06 AUDIO
TITLE "Песня о любви"
PERFORMER "Светлана Разина"
    INDEX 01 17:32:57
  TRACK 07 AUDIO
TITLE "Четыре стихии"
PERFORMER "Органическая леди"
    INDEX 01 21:30:51
  TRACK 08 AUDIO
TITLE "Плейбой"
PERFORMER "Наталья Ветлицкая"
    INDEX 01 25:46:33
  TRACK 09 AUDIO
TITLE ""
PERFORMER ""
    INDEX 01 30:11:27
FILE "Сторона2.flac" WAVE
  TRACK 10 AUDIO
TITLE "Плохая примета"
PERFORMER "Александр Кальянов"
    INDEX 01 00:05:00
  TRACK 11 AUDIO
TITLE "Где-то далеко"
PERFORMER "Лиза Мялик"
    INDEX 01 02:23:52
  TRACK 12 AUDIO
TITLE "Мы друзьями не станем (Remix)"
PERFORMER "Лада Дэнс"
    INDEX 01 05:58:42
  TRACK 13 AUDIO
TITLE "Волнуется черное море"
PERFORMER "Вадим Козеев и гр.Авангард"
    INDEX 01 09:16:25
  TRACK 14 AUDIO
TITLE "Ты зачем говоришь о любви"
PERFORMER "Алена Апина"
    INDEX 01 12:34:49
  TRACK 15 AUDIO
TITLE "Я тебе не верю"
PERFORMER "Кай Метов"
    INDEX 01 16:51:32
  TRACK 16 AUDIO
TITLE "С тобой"
PERFORMER "Дмитрий Маликов"
    INDEX 01 20:17:73
  TRACK 17 AUDIO
TITLE "До свидания любовь"
PERFORMER "Наталья Гулькина"
    INDEX 01 23:33:37
  TRACK 18 AUDIO
TITLE "Транзитный пассажир"
PERFORMER "Ирина Алегрова"
    INDEX 01 28:54:69
Саша (beloborod) вне форума   Ответить с цитированием
3 пользователя(ей) сказали cпасибо:
Алексей 69 (22.04.2017), александр69 (22.04.2017), Worldly-wise (22.04.2017)
Ответ

Закладки

Опции темы
Опции просмотра

Ваши права в разделе
Вы не можете создавать новые темы
Вы не можете отвечать в темах
Вы не можете прикреплять вложения
Вы не можете редактировать свои сообщения

BB коды Вкл.
Смайлы Вкл.
[IMG] код Вкл.
HTML код Выкл.

Быстрый переход


Часовой пояс GMT, время: 01:38.


Powered by vBulletin® Version 3.8.2
Copyright ©2000 - 2017, Jelsoft Enterprises Ltd. Перевод: zCarot
Rambler's Top100 Республика Татарстан - Каталог сайтов