Все Тут Online

   
Меню сайта:
Главная
Форум
Чат
- Online приложения:
- Игры
- Выбор стиля:
- FAQ
- Для начинающих

Вернуться   Все Тут Online > МАГНИТИЗДАТ (Оцифровки Кассет и Бобин) (lossless) > ПОП МУЗЫКА, Eurodance, Disco (Lossless) > Отечественная

загрузка...
Ответ
 
Опции темы Опции просмотра
Старый 19.04.2017, 07:34   #1
Worldly-wise
VIP
 
Аватар для Worldly-wise
 

Регистрация: 16.09.2011
Адрес: USSR
Сообщений: 3,505
Сказал(а) спасибо: 1,946
Поблагодарили 1,492 раз(а) в 805 сообщениях
Worldly-wise репутация неоспоримаWorldly-wise репутация неоспоримаWorldly-wise репутация неоспоримаWorldly-wise репутация неоспоримаWorldly-wise репутация неоспоримаWorldly-wise репутация неоспоримаWorldly-wise репутация неоспоримаWorldly-wise репутация неоспоримаWorldly-wise репутация неоспоримаWorldly-wise репутация неоспоримаWorldly-wise репутация неоспорима
Сообщение [24/48] Эстрадный сборник 50/50 [lossless]

загрузка...
Эстрадный сборник 50/50



Источник: Technics RS-TR575
Формат: Flac 24/48000
Битрейт аудио: lossless
Программа: Acoustica Premium Edition 6.0
Звуковая карта: Встроенная
Realtek High Definition Audio Driver - 2015
Длительность: 34 + 34 мин
Размер архива: 905 Мб
Кассета из личной коллекции.

Сторона 1:

01. Вступление
02. ????
03. Догорали огни заката...
04. ????
05. Знаешь ты болтаешь во сне...
06. ????
07. Ты знаешь мой ответ...
08. ????
09. Небо,красит машины...
10. ????

Сторона 2:

01. Привет,я Денис...
02. ????
03. Тебя ругают постоянно...
04. ????
05. Ты обвиняешь меня...
06. ????
07. Я знаю точно...
08. ????
09. Лай ла...


Ещё один не подписанный сборник русских и западных песен,примерно 50/50.Наверное начало 2000-х..Возможно что-то из серии сборников LX - XXL


CUE -
Скрытый текст (вы должны зарегистрироваться или войти под своим логином):
У вас нет прав чтобы видеть скрытый текст, содержащейся здесь.


Скрытый текст (вы должны зарегистрироваться или войти под своим логином):
У вас нет прав чтобы видеть скрытый текст, содержащейся здесь.
__________________

Последний раз редактировалось Саша (beloborod); 22.04.2017 в 14:16.
Worldly-wise вне форума   Ответить с цитированием
3 пользователя(ей) сказали cпасибо:
ДенисПоПов27 (19.04.2017), Дмитрий (19.04.2017), Саша (beloborod) (19.04.2017)
Старый 22.04.2017, 14:18   #2
Саша (beloborod)
Модератор
 
Аватар для Саша (beloborod)
 

Регистрация: 30.07.2012
Адрес: Сибирь
Сообщений: 1,533
Сказал(а) спасибо: 4,337
Поблагодарили 6,526 раз(а) в 1,024 сообщениях
Саша (beloborod) репутация неоспоримаСаша (beloborod) репутация неоспоримаСаша (beloborod) репутация неоспоримаСаша (beloborod) репутация неоспоримаСаша (beloborod) репутация неоспоримаСаша (beloborod) репутация неоспоримаСаша (beloborod) репутация неоспоримаСаша (beloborod) репутация неоспоримаСаша (beloborod) репутация неоспоримаСаша (beloborod) репутация неоспоримаСаша (beloborod) репутация неоспорима
По умолчанию

Валера,Спасибо большое!!!

Код:
 REM GENRE "ПОП"
REM DATE ????
REM COMMENT "Оцифровка - Worldly-wise"
TITLE "Магнитоальбом"
PERFORMER "Сборник"
FILE "Сторона1.flac" WAVE
  TRACK 01 AUDIO
TITLE "Вступление"
PERFORMER ""
    INDEX 01 00:03:00
  TRACK 02 AUDIO
TITLE "????"
PERFORMER ""
    INDEX 01 00:42:14
  TRACK 03 AUDIO
TITLE "Догорали огни заката..."
PERFORMER ""
    INDEX 01 03:46:71
  TRACK 04 AUDIO
TITLE "????"
PERFORMER ""
    INDEX 01 06:56:65
  TRACK 05 AUDIO
TITLE "Знаешь ты болтаешь во сне..."
PERFORMER ""
    INDEX 01 10:22:58
  TRACK 06 AUDIO
TITLE "????"
PERFORMER ""
    INDEX 01 13:47:63
  TRACK 07 AUDIO
TITLE "Ты знаешь мой ответ..."
PERFORMER ""
    INDEX 01 17:43:36
  TRACK 08 AUDIO
TITLE "????"
PERFORMER ""
    INDEX 01 20:58:20
  TRACK 09 AUDIO
TITLE "Небо,красит машины..."
PERFORMER ""
    INDEX 01 26:02:29
  TRACK 10 AUDIO
TITLE "????"
PERFORMER ""
    INDEX 01 29:39:09
FILE "Сторона2.flac" WAVE
  TRACK 11 AUDIO
TITLE "Привет,я Денис..."
PERFORMER ""
    INDEX 01 00:05:00
  TRACK 12 AUDIO
TITLE "????"
PERFORMER ""
    INDEX 01 04:10:07
  TRACK 13 AUDIO
TITLE "Тебя ругают постоянно..."
PERFORMER ""
    INDEX 01 07:59:50
  TRACK 14 AUDIO
TITLE "????"
PERFORMER ""
    INDEX 01 11:10:36
  TRACK 15 AUDIO
TITLE "Ты обвиняешь меня..."
PERFORMER ""
    INDEX 01 14:45:27
  TRACK 16 AUDIO
TITLE "????"
PERFORMER ""
    INDEX 01 18:15:04
  TRACK 17 AUDIO
TITLE "Я знаю точно..."
PERFORMER ""
    INDEX 01 22:59:72
  TRACK 18 AUDIO
TITLE "????"
PERFORMER ""
    INDEX 01 27:07:74
  TRACK 19 AUDIO
TITLE "Лай ла..."
PERFORMER ""
    INDEX 01 30:58:14
Саша (beloborod) вне форума   Ответить с цитированием
2 пользователя(ей) сказали cпасибо:
Алексей 69 (22.04.2017), Worldly-wise (22.04.2017)
Ответ

Закладки

Опции темы
Опции просмотра

Ваши права в разделе
Вы не можете создавать новые темы
Вы не можете отвечать в темах
Вы не можете прикреплять вложения
Вы не можете редактировать свои сообщения

BB коды Вкл.
Смайлы Вкл.
[IMG] код Вкл.
HTML код Выкл.

Быстрый переход


Часовой пояс GMT, время: 14:08.


Powered by vBulletin® Version 3.8.2
Copyright ©2000 - 2017, Jelsoft Enterprises Ltd. Перевод: zCarot
Rambler's Top100 Республика Татарстан - Каталог сайтов