Все Тут Online

   
Меню сайта:
Главная
Форум
Чат
- Online приложения:
- Игры
- Выбор стиля:
- FAQ
- Для начинающих

Вернуться   Все Тут Online > МАГНИТИЗДАТ (Оцифровки Кассет и Бобин) (lossless) > ПОП МУЗЫКА, Eurodance, Disco (Lossless) > Отечественная

загрузка...
Ответ
 
Опции темы Опции просмотра
Старый 19.04.2017, 22:51   #21
ДенисПоПов27
VIP
 

Регистрация: 29.03.2011
Сообщений: 2,301
Сказал(а) спасибо: 2,934
Поблагодарили 1,042 раз(а) в 614 сообщениях
ДенисПоПов27 репутация неоспоримаДенисПоПов27 репутация неоспоримаДенисПоПов27 репутация неоспоримаДенисПоПов27 репутация неоспоримаДенисПоПов27 репутация неоспоримаДенисПоПов27 репутация неоспоримаДенисПоПов27 репутация неоспоримаДенисПоПов27 репутация неоспоримаДенисПоПов27 репутация неоспоримаДенисПоПов27 репутация неоспоримаДенисПоПов27 репутация неоспорима
По умолчанию

загрузка...
Дмитрий, И петь и фильм-сказку свою нормально доснять и смонтировать и на Дивиди выпустить! Лишь некоторые съёмки сказки остались...
Мог бы он ещё не один альбом выпустить... А так... Вон подражатели повылазили... "Сектор газовой атаки" и прочие... Это уже не то пальто...
ДенисПоПов27 вне форума   Ответить с цитированием
Старый 19.04.2017, 22:53   #22
Дмитрий
Music Group
 
Аватар для Дмитрий
 

Регистрация: 12.12.2008
Адрес: Москва прошлого тысячелетия.
Сообщений: 99,367
Сказал(а) спасибо: 22,770
Поблагодарили 99,030 раз(а) в 40,046 сообщениях
Дмитрий репутация неоспоримаДмитрий репутация неоспоримаДмитрий репутация неоспоримаДмитрий репутация неоспоримаДмитрий репутация неоспоримаДмитрий репутация неоспоримаДмитрий репутация неоспоримаДмитрий репутация неоспоримаДмитрий репутация неоспоримаДмитрий репутация неоспоримаДмитрий репутация неоспорима
Отправить сообщение для Дмитрий с помощью Skype™
По умолчанию

ДенисПоПов27, да!
он был полон сил и энергии, если бы не эта гадость - наркотики!
__________________









Ccылка на тему: Как скачивать с Яндекс диска!

Чтобы быстро скачать чужой опубликованный файл, сохраните его на свой Диск. На вашем Диске файл окажется мгновенно, а свои файлы вы всегда можете скачать без ограничений. Для этого нужно пройти регистрацию на https://www.yandex.ru/

Если вам нечего делать, то не надо делать это у нас на форуме!!!
Водитель в России должен уметь обруливать ямы, уворачиваться от обруливающих ямы, от лихачей, пешеходов и долбо...бов...


Не работают ссылки, не надо флудить в теме. Сообщите ЗДЕСЬ!




Форум не против размещения раздач на других ресурсах. Скачал и не оставил комментарий - понизил релизёру мотивацию делиться с окружающими!

Команда Все Тут желает Вам приятного прослушивания!


Дмитрий вне форума   Ответить с цитированием
Старый 20.04.2017, 12:57   #23
Герой
Новичок
 

Регистрация: 19.12.2015
Сообщений: 20
Сказал(а) спасибо: 25
Поблагодарили 4 раз(а) в 3 сообщениях
Герой на пути к лучшему
По умолчанию

сборник скорее всего 1997г. а не 1995
Герой вне форума   Ответить с цитированием
2 пользователя(ей) сказали cпасибо:
Алексей 69 (20.04.2017), Дмитрий (20.04.2017)
Старый 20.04.2017, 13:09   #24
Дмитрий
Music Group
 
Аватар для Дмитрий
 

Регистрация: 12.12.2008
Адрес: Москва прошлого тысячелетия.
Сообщений: 99,367
Сказал(а) спасибо: 22,770
Поблагодарили 99,030 раз(а) в 40,046 сообщениях
Дмитрий репутация неоспоримаДмитрий репутация неоспоримаДмитрий репутация неоспоримаДмитрий репутация неоспоримаДмитрий репутация неоспоримаДмитрий репутация неоспоримаДмитрий репутация неоспоримаДмитрий репутация неоспоримаДмитрий репутация неоспоримаДмитрий репутация неоспоримаДмитрий репутация неоспорима
Отправить сообщение для Дмитрий с помощью Skype™
По умолчанию

Worldly-wise, Валера, согласен?
Если да, то я правлю название темы
__________________









Ccылка на тему: Как скачивать с Яндекс диска!

Чтобы быстро скачать чужой опубликованный файл, сохраните его на свой Диск. На вашем Диске файл окажется мгновенно, а свои файлы вы всегда можете скачать без ограничений. Для этого нужно пройти регистрацию на https://www.yandex.ru/

Если вам нечего делать, то не надо делать это у нас на форуме!!!
Водитель в России должен уметь обруливать ямы, уворачиваться от обруливающих ямы, от лихачей, пешеходов и долбо...бов...


Не работают ссылки, не надо флудить в теме. Сообщите ЗДЕСЬ!




Форум не против размещения раздач на других ресурсах. Скачал и не оставил комментарий - понизил релизёру мотивацию делиться с окружающими!

Команда Все Тут желает Вам приятного прослушивания!


Дмитрий вне форума   Ответить с цитированием
Старый 20.04.2017, 13:10   #25
Worldly-wise
VIP
 
Аватар для Worldly-wise
 

Регистрация: 16.09.2011
Адрес: USSR
Сообщений: 3,601
Сказал(а) спасибо: 2,040
Поблагодарили 1,664 раз(а) в 879 сообщениях
Worldly-wise репутация неоспоримаWorldly-wise репутация неоспоримаWorldly-wise репутация неоспоримаWorldly-wise репутация неоспоримаWorldly-wise репутация неоспоримаWorldly-wise репутация неоспоримаWorldly-wise репутация неоспоримаWorldly-wise репутация неоспоримаWorldly-wise репутация неоспоримаWorldly-wise репутация неоспоримаWorldly-wise репутация неоспорима
По умолчанию

Цитата:
Сообщение от Герой Посмотреть сообщение
сборник скорее всего 1997г. а не 1995
Возможно..ко мне попало всё напутано,думал хоть одна кассета на своём месте.

Дмитрий, Можно исправить..
__________________

Последний раз редактировалось Worldly-wise; 20.04.2017 в 13:13.
Worldly-wise вне форума   Ответить с цитированием
Пользователь сказал cпасибо:
Дмитрий (20.04.2017)
Старый 22.04.2017, 13:17   #26
Саша (beloborod)
Модератор
 
Аватар для Саша (beloborod)
 

Регистрация: 30.07.2012
Адрес: Сибирь
Сообщений: 1,696
Сказал(а) спасибо: 5,129
Поблагодарили 7,473 раз(а) в 1,160 сообщениях
Саша (beloborod) репутация неоспоримаСаша (beloborod) репутация неоспоримаСаша (beloborod) репутация неоспоримаСаша (beloborod) репутация неоспоримаСаша (beloborod) репутация неоспоримаСаша (beloborod) репутация неоспоримаСаша (beloborod) репутация неоспоримаСаша (beloborod) репутация неоспоримаСаша (beloborod) репутация неоспоримаСаша (beloborod) репутация неоспоримаСаша (beloborod) репутация неоспорима
По умолчанию

Валера,спасибо большое!!!

Код:
 REM GENRE "ПОП"
REM DATE 1997
REM COMMENT "Оцифровка - Worldly-wise"
TITLE "Любимой женщине подарок"
PERFORMER "Сборник с Кубани"
FILE "Сторона1.flac" WAVE
  TRACK 01 AUDIO
TITLE "Вот и солнце село"
PERFORMER "Татьяна Буланова"
    INDEX 01 00:05:00
  TRACK 02 AUDIO
TITLE "Дожди"
PERFORMER "Марина Хлебникова"
    INDEX 01 04:29:41
  TRACK 03 AUDIO
TITLE "Ветер с моря дул"
PERFORMER "Натали"
    INDEX 01 08:48:67
  TRACK 04 AUDIO
TITLE "Нас больше нет"
PERFORMER "Лада Дэнс"
    INDEX 01 12:45:15
  TRACK 05 AUDIO
TITLE "Белая луна"
PERFORMER "Светлана Разина"
    INDEX 01 18:13:28
  TRACK 06 AUDIO
TITLE "Мальчик мой"
PERFORMER "Лариса Долина"
    INDEX 01 22:21:13
  TRACK 07 AUDIO
TITLE "Подари эту ночь"
PERFORMER "Ирина Аллегрова"
    INDEX 01 25:57:54
FILE "Сторона2.flac" WAVE
  TRACK 08 AUDIO
TITLE "Открою альбом"
PERFORMER "МГК"
    INDEX 01 00:08:00
  TRACK 09 AUDIO
TITLE "Вкусом шоколада"
PERFORMER "Лариса Черникова"
    INDEX 01 03:53:61
  TRACK 10 AUDIO
TITLE "Кап-кап"
PERFORMER "Валерия"
    INDEX 01 07:45:57
  TRACK 11 AUDIO
TITLE "Крылечко"
PERFORMER "Лиза Мялик"
    INDEX 01 12:21:54
  TRACK 12 AUDIO
TITLE "Гитара"
PERFORMER "????"
    INDEX 01 16:42:67
  TRACK 13 AUDIO
TITLE "Я тебя никому не отдам"
PERFORMER "Елена Панурова"
    INDEX 01 20:45:56
  TRACK 14 AUDIO
TITLE "Русалочка"
PERFORMER "Каролина"
    INDEX 01 25:59:70
  TRACK 15 AUDIO
TITLE "Мне приснилось"
PERFORMER "????"
    INDEX 01 29:54:67
Саша (beloborod) вне форума   Ответить с цитированием
2 пользователя(ей) сказали cпасибо:
Алексей 69 (22.04.2017), александр69 (22.04.2017)
Ответ

Закладки

Опции темы
Опции просмотра

Ваши права в разделе
Вы не можете создавать новые темы
Вы не можете отвечать в темах
Вы не можете прикреплять вложения
Вы не можете редактировать свои сообщения

BB коды Вкл.
Смайлы Вкл.
[IMG] код Вкл.
HTML код Выкл.

Быстрый переход


Часовой пояс GMT, время: 23:58.


Powered by vBulletin® Version 3.8.2
Copyright ©2000 - 2017, Jelsoft Enterprises Ltd. Перевод: zCarot
Rambler's Top100 Республика Татарстан - Каталог сайтов