Все Тут Online

   
Меню сайта:
Главная
Форум
Чат
- Online приложения:
- Игры
- Выбор стиля:
- FAQ
- Для начинающих

Вернуться   Все Тут Online > CD (Компакт диски) Lossless - МУЗЫКА БЕЗ ПОТЕРИ КАЧЕСТВА > РОК МУЗЫКА (Lossless) > Зарубежный Rock (lossless)

загрузка...
Ответ
 
Опции темы Опции просмотра
Старый 20.04.2017, 05:02   #1
shurele
VIP
 
Аватар для shurele
 

Регистрация: 09.04.2016
Адрес: Германия
Сообщений: 646
Сказал(а) спасибо: 89
Поблагодарили 1,740 раз(а) в 398 сообщениях
shurele репутация неоспоримаshurele репутация неоспоримаshurele репутация неоспоримаshurele репутация неоспоримаshurele репутация неоспоримаshurele репутация неоспоримаshurele репутация неоспоримаshurele репутация неоспоримаshurele репутация неоспоримаshurele репутация неоспоримаshurele репутация неоспорима
Отправить сообщение для shurele с помощью Skype™
По умолчанию 100% Eintagsfliegen - Alles Hits

загрузка...
100% Eintagsfliegen - Alles Hits



100% Eintagsfliegen (нем.) - Бабочки-однодневки или точнее факиры на час. Так составители этого двухдискового сборника назвали исполнителей и группы, которые сделали в своей карьере один-единственный хит, но полновесный, 100-процентный хит и исчезли со сцены навсегда. Мнение составителей весьма спорно ибо многие, представленные здесь исполнители, оставались и остаются долгожителями музыкальной жизни, но хиты, представленные здесь, ХИТЫ 100-процентные!!! Тут не поспоришь.


Альбом: 100% Eintagsfliegen - Alles Hits
Исполнитель: разные
Год выпуска: - 2001
Время звучания: CD 1 - 00:44:44 CD 2 - 00:42:49
Жанр: Classic Rock, Rock & Roll, Pop Rock, Beat
Формат: FLAC (tracks)/ MP3 (320) (tracks)
Качество: Lossless
Количество треков: 30
Размер архива: CD 1 flac - 281 Mb; mp3 (320kbps) - 108 Mb; CD 2 flac - 274 Mb; mp3 (320kbps) - 104 Mb;
Язык релиза: английский

Содержание:

1-1 –McCoys - Hang On Sloopy 3:02
1-2 –F.R. David - Words 2:49
1-3 –Lynsey De Paul - Sugar Me 3:33
1-4 –Mary Hopkins - Those Were The Days 3:35
1-5 –Norman Greenbaum - Spirit In The Sky 3:59
1-6 –Ohio Express - Yummy, Yummy, Yummy 2:17
1-7 –1910 Fruitgum Company - Simon Says 2:13
1-8 –John Fred & His Playboy Band - Judy In Disguise 2:53
1-9 –Los Bravos - Black Is Black 2:55
1-10 –Bobby McFerrin - Don't Worry Be Happy 3:54
1-11 –Edison Lighthouse - Love Grows 2:44
1-12 –The Tokens - The Lion Sleeps Tonight 2:40
1-13 –The New Vaudeville Band - Winchester Cathedral 2:10
1-14 –Jay & The Americans - Cara Mia 2:33
1-15 –The Tornados - Telstar 3:17

2-1 –The Archies - Sugar Sugar 2:48
2-2 –Box Tops - The Letter 1:55
2-3 –Zager And Evans - In The Year 2525 3:16
2-4 –Miriam Makebe - Pata Pata 2:59
2-5 –Marmelade - Obladi Oblada 2:59
2-6 –Little Eva - The Locomotion 2:23
2-7 –Lyn Anderson - Rose Garden 2:50
2-8 –Roger Miller - King Of The Road 2:27
2-9 –Jeannie C. Riley - Harper Valley P.T.A. 3:11
2-10 –Leapy Lee - Little Arrows 2:27
2-11 –Flower Pot Men - Lets Go To San Francisco 3:36
2-12 –Daniel Boone - Beautiful Sunday 3:01
2-13 –The Animals - House Of The Rising Sun 4:29
2-14 –Eddie Cochran - Summertime Blues 1:55
2-15 –Hot Butter - Popcorn 2:30




Код:
Лог СД 1
Exact Audio Copy V1.0 beta 3 from 29. August 2011

EAC extraction logfile from 15. April 2017, 11:26

Various / 100% Eintagsfliegen - Alles Hits (2001) 2CDs- CD1

Used drive  : TSSTcorpCDDVDW SH-216DB   Adapter: 0  ID: 0

Read mode               : Secure
Utilize accurate stream : Yes
Defeat audio cache      : Yes
Make use of C2 pointers : No

Read offset correction                      : 6
Overread into Lead-In and Lead-Out          : No
Fill up missing offset samples with silence : Yes
Delete leading and trailing silent blocks   : No
Null samples used in CRC calculations       : Yes
Used interface                              : Native Win32 interface for Win NT & 2000

Used output format              : User Defined Encoder
Selected bitrate                : 1024 kBit/s
Quality                         : High
Add ID3 tag                     : No
Command line compressor         : C:\Program Files (x86)\Exact Audio Copy\Flac\flac.exe
Additional command line options : -V -8 -T "Date=%year%" -T "Genre=%genre%" %source%


TOC of the extracted CD

     Track |   Start  |  Length  | Start sector | End sector 
    ---------------------------------------------------------
        1  |  0:00.00 |  3:03.17 |         0    |    13741   
        2  |  3:03.17 |  2:49.01 |     13742    |    26417   
        3  |  5:52.18 |  3:34.72 |     26418    |    42539   
        4  |  9:27.15 |  3:36.46 |     42540    |    58785   
        5  | 13:03.61 |  3:59.36 |     58786    |    76746   
        6  | 17:03.22 |  2:17.10 |     76747    |    87031   
        7  | 19:20.32 |  2:12.67 |     87032    |    96998   
        8  | 21:33.24 |  2:53.10 |     96999    |   109983   
        9  | 24:26.34 |  2:57.26 |    109984    |   123284   
       10  | 27:23.60 |  3:54.13 |    123285    |   140847   
       11  | 31:17.73 |  2:45.05 |    140848    |   153227   
       12  | 34:03.03 |  2:39.71 |    153228    |   165223   
       13  | 36:42.74 |  2:11.13 |    165224    |   175061   
       14  | 38:54.12 |  2:33.47 |    175062    |   186583   
       15  | 41:27.59 |  3:17.06 |    186584    |   201364   


Range status and errors

Selected range

     Filename L:\Private\My Audio Ripps\ CD - RIPS\100% Eintagsfliegen - Alles Hits\CD 1\Various - 100% Eintagsfliegen - Alles Hits (2001) 2CDs- CD1.wav

     Peak level 100.0 %
     Extraction speed 6.5 X
     Range quality 99.9 %
     Test CRC 0A7386EB
     Copy CRC 0A7386EB
     Copy OK

No errors occurred

 
AccurateRip summary
 
Track  1  accurately ripped (confidence 7)  [C9E21692]  (AR v2)
Track  2  accurately ripped (confidence 7)  [443A15E1]  (AR v2)
Track  3  accurately ripped (confidence 7)  [20169025]  (AR v2)
Track  4  accurately ripped (confidence 7)  [7CA119CF]  (AR v2)
Track  5  accurately ripped (confidence 8)  [E9CB91D9]  (AR v2)
Track  6  accurately ripped (confidence 7)  [AAEE6DBF]  (AR v2)
Track  7  accurately ripped (confidence 7)  [A994C050]  (AR v2)
Track  8  accurately ripped (confidence 8)  [2E32E038]  (AR v2)
Track  9  accurately ripped (confidence 8)  [B6EB21DB]  (AR v2)
Track 10  accurately ripped (confidence 7)  [2A50A051]  (AR v2)
Track 11  accurately ripped (confidence 8)  [D63F043E]  (AR v2)
Track 12  accurately ripped (confidence 8)  [E03EB290]  (AR v2)
Track 13  accurately ripped (confidence 7)  [07A99531]  (AR v2)
Track 14  accurately ripped (confidence 7)  [A970F3B7]  (AR v2)
Track 15  accurately ripped (confidence 7)  [F291ABC3]  (AR v2)
 
All tracks accurately ripped

End of status report

==== Log checksum 878994B4B0D36A93D66D43E394CD8099894A027ACF1CF7E4ADEE9FEC7D28C0CB ====

Лог СД 2
Exact Audio Copy V1.0 beta 3 from 29. August 2011

EAC extraction logfile from 15. April 2017, 13:26

Various Artists / Die! Eintagsfliegen (CD2)

Used drive  : TSSTcorpCDDVDW SH-216DB   Adapter: 0  ID: 0

Read mode               : Secure
Utilize accurate stream : Yes
Defeat audio cache      : Yes
Make use of C2 pointers : No

Read offset correction                      : 6
Overread into Lead-In and Lead-Out          : No
Fill up missing offset samples with silence : Yes
Delete leading and trailing silent blocks   : No
Null samples used in CRC calculations       : Yes
Used interface                              : Native Win32 interface for Win NT & 2000

Used output format              : User Defined Encoder
Selected bitrate                : 1024 kBit/s
Quality                         : High
Add ID3 tag                     : No
Command line compressor         : C:\Program Files (x86)\Exact Audio Copy\Flac\flac.exe
Additional command line options : -V -8 -T "Date=%year%" -T "Genre=%genre%" %source%


TOC of the extracted CD

     Track |   Start  |  Length  | Start sector | End sector 
    ---------------------------------------------------------
        1  |  0:00.00 |  2:47.63 |         0    |    12587   
        2  |  2:47.63 |  1:54.62 |     12588    |    21199   
        3  |  4:42.50 |  3:17.04 |     21200    |    35978   
        4  |  7:59.54 |  3:01.35 |     35979    |    49588   
        5  | 11:01.14 |  2:59.16 |     49589    |    63029   
        6  | 14:00.30 |  2:24.01 |     63030    |    73830   
        7  | 16:24.31 |  2:49.47 |     73831    |    86552   
        8  | 19:14.03 |  2:27.15 |     86553    |    97592   
        9  | 21:41.18 |  3:11.73 |     97593    |   111990   
       10  | 24:53.16 |  2:27.46 |    111991    |   123061   
       11  | 27:20.62 |  3:37.21 |    123062    |   139357   
       12  | 30:58.08 |  2:56.21 |    139358    |   152578   
       13  | 33:54.29 |  4:28.53 |    152579    |   172731   
       14  | 38:23.07 |  1:55.21 |    172732    |   181377   
       15  | 40:18.28 |  2:30.62 |    181378    |   192689   


Range status and errors

Selected range

     Filename L:\Private\My Audio Ripps\ CD - RIPS\100% Eintagsfliegen - Alles Hits\CD 2\Various Artists - Die! Eintagsfliegen (CD2).wav

     Peak level 98.4 %
     Extraction speed 2.7 X
     Range quality 100.0 %
     Test CRC C7BCB056
     Copy CRC C7BCB056
     Copy OK

No errors occurred

 
AccurateRip summary
 
Track  1  accurately ripped (confidence 7)  [7BAB9DE8]  (AR v2)
Track  2  accurately ripped (confidence 7)  [05AB9EE1]  (AR v2)
Track  3  accurately ripped (confidence 7)  [8AB0DE84]  (AR v2)
Track  4  accurately ripped (confidence 7)  [56EF6447]  (AR v2)
Track  5  accurately ripped (confidence 7)  [C33B9AC7]  (AR v2)
Track  6  accurately ripped (confidence 7)  [BA31EB46]  (AR v2)
Track  7  accurately ripped (confidence 7)  [9FE155A1]  (AR v2)
Track  8  accurately ripped (confidence 7)  [A979F7D7]  (AR v2)
Track  9  accurately ripped (confidence 7)  [501B014C]  (AR v2)
Track 10  accurately ripped (confidence 7)  [1A5871AA]  (AR v2)
Track 11  accurately ripped (confidence 7)  [1A413885]  (AR v2)
Track 12  accurately ripped (confidence 7)  [FBC7DE4A]  (AR v2)
Track 13  accurately ripped (confidence 7)  [DA21D140]  (AR v2)
Track 14  accurately ripped (confidence 7)  [AEE2ABE6]  (AR v2)
Track 15  accurately ripped (confidence 7)  [B58BA25A]  (AR v2)
 
All tracks accurately ripped

End of status report

==== Log checksum 62108780AEBD9DFECF203CB7B3AEDFEDE74F7358A4969A8D43362D2C639EF57B ====

Pressed By – CDA (4)

Track 1-8 is misspelled as 'Judge In Disguise' on cover.
Track 2-13 is the original version by 'The Animals' not the coverversion by 'Frijid Pink' as on cover. Track duration taken from cd-player.
Barcode und andere Identifikationsmerkmale

Barcode: 4 013659 230236
Mastering SID Code: IFPI L622
Matrix / Runout (CD 1): 3840-506255
Matrix / Runout (CD 2): 3841-506256
Rights Society: GEMA
Other (Spars Code): ADD

Рип - мой



Страна: Germany
Издатель (лейбл): Falcon Neue Medien ‎– 23023, Universe (2) ‎– 23023
Формат: FLAC / MP3 (320)
Параметры: 2 × CD, Compilation, Rip, image, log, cue
Источник: СД-бокс из собственной коллекции


Скрытый текст (вы должны зарегистрироваться или войти под своим логином):
У вас нет прав чтобы видеть скрытый текст, содержащейся здесь.
__________________
Ccылка на тему: Как скачивать с Яндекс диска!

Чтобы быстро скачать чужой опубликованный файл, сохраните его на свой Диск. На вашем Диске файл окажется мгновенно, а свои файлы вы всегда можете скачать без ограничений.
shurele вне форума   Ответить с цитированием
6 пользователя(ей) сказали cпасибо:
васил (20.04.2017), Дмитрий (20.04.2017), Никита9988 (20.04.2017), kopilovoleg (20.04.2017), tu16 (21.04.2017), zitrus (20.04.2017)
Ответ

Закладки

Опции темы
Опции просмотра

Ваши права в разделе
Вы не можете создавать новые темы
Вы не можете отвечать в темах
Вы не можете прикреплять вложения
Вы не можете редактировать свои сообщения

BB коды Вкл.
Смайлы Вкл.
[IMG] код Вкл.
HTML код Выкл.

Быстрый переход


Часовой пояс GMT, время: 05:23.


Powered by vBulletin® Version 3.8.2
Copyright ©2000 - 2017, Jelsoft Enterprises Ltd. Перевод: zCarot
Rambler's Top100 Республика Татарстан - Каталог сайтов