Все Тут Online

   
Меню сайта:
Главная
Форум
Чат
- Online приложения:
- Игры
- Выбор стиля:
- FAQ
- Для начинающих

Вернуться   Все Тут Online > МАГНИТИЗДАТ (Оцифровки Кассет и Бобин) (lossless) > ПОП МУЗЫКА, Eurodance, Disco (Lossless) > Отечественная

загрузка...
Ответ
 
Опции темы Опции просмотра
Старый 20.04.2017, 11:09   #1
Don_G
Пользователь
 
Аватар для Don_G
 

Регистрация: 27.05.2010
Сообщений: 42
Сказал(а) спасибо: 116
Поблагодарили 199 раз(а) в 30 сообщениях
Don_G за этого человека можно гордитсяDon_G за этого человека можно гордитсяDon_G за этого человека можно гордитсяDon_G за этого человека можно гордитсяDon_G за этого человека можно гордитсяDon_G за этого человека можно гордитсяDon_G за этого человека можно гордитсяDon_G за этого человека можно гордится
По умолчанию [MB] [24/96] С.С.Э. 80х-90х - Се ля ви (Диалог, Алексей Глызин...)

загрузка...
С.С.Э. 80х-90х - Се ля ви



Год выпуска: Начало девяностых
Страна-производитель: СССР
Аудио кодек: FLAC
Тип рипа: image+.cue
Формат записи: 32*/96
Формат раздачи: 24/96
Продолжительность: 01:46:22


Предлагаю вашему вниманию очередной "самопальный" сборник.

Сторона 1:

01. Дмитрий Григорьев и группа «Синдикат» - Говорила, говорила
02. Дмитрий Григорьев и группа «Синдикат» - Помани меня
03. Маргарита Суворова - Кимоно
04. Михаил Муромов - Ведьма
05. Андрей Зубков - Золотые вечера
06. Виктор Зинчук - Бумеранг
07. НРГ (Новая Русская Группа) - Но Мы Не Слышим
08. ЧП – Модная девчонка
09. ЧП - А вдруг
10. Пламя – Снежная королева
11. Аркадий Ангел и гр.Солярис - Рисую я тебя
12. Шоколад - Прости, прощай
13. Пламя - Девочка с Приморского бульвара
14. Если б ты знал...

Сторона 2:

01. Наутилус Помпилиус - Казанова
02. Анна Вески - Я брошусь в омут
03. Игорь Николаев - Фантастика
04. Алексей Глызин - Пепел любви
05. Валерий Чистяков - Мари
06. Михаил Михайлов - Наша встреча не случайна
07. Николай Караченцов - Твоя рука
08. Телескоп - Компьютер
09. Диалог - Се-ля-ви
10. Индекс 398 - Лабиринт
11. Анатолий Алёшин - Дуняша
12. Ольга Зарубина - Разгуляй
13. Любовь Привина - Первая любовь
14. Филипп Киркоров - Осторожно


Источник оцифровки: автором раздачи
Устройство воспроизведения: Олимп 004
Предварительный усилитель: Линейный выход
АЦП: Creative Audigy SE (SB0570) Sound Card
Программа-оцифровщик: Adobe Audition 3.0
Обработка: Минимальная

Скачать CUE
Скрытый текст (вы должны зарегистрироваться или войти под своим логином):
У вас нет прав чтобы видеть скрытый текст, содержащейся здесь.


Скачать FLAC(24/96):

Скрытый текст (вы должны зарегистрироваться или войти под своим логином):
У вас нет прав чтобы видеть скрытый текст, содержащейся здесь.

Последний раз редактировалось Don_G; 23.04.2017 в 11:44.
Don_G вне форума   Ответить с цитированием
8 пользователя(ей) сказали cпасибо:
ДенисПоПов27 (20.04.2017), Алексей 69 (22.04.2017), Вит70 (22.04.2017), Дмитрий (20.04.2017), cthutq_1956 (22.04.2017), октябрина (21.04.2017), Саша (beloborod) (20.04.2017), victor1953 (21.04.2017)
Старый 22.04.2017, 15:11   #2
Саша (beloborod)
Модератор
 
Аватар для Саша (beloborod)
 

Регистрация: 30.07.2012
Адрес: Сибирь
Сообщений: 1,533
Сказал(а) спасибо: 4,337
Поблагодарили 6,526 раз(а) в 1,024 сообщениях
Саша (beloborod) репутация неоспоримаСаша (beloborod) репутация неоспоримаСаша (beloborod) репутация неоспоримаСаша (beloborod) репутация неоспоримаСаша (beloborod) репутация неоспоримаСаша (beloborod) репутация неоспоримаСаша (beloborod) репутация неоспоримаСаша (beloborod) репутация неоспоримаСаша (beloborod) репутация неоспоримаСаша (beloborod) репутация неоспоримаСаша (beloborod) репутация неоспорима
По умолчанию

Don_G, Спасибо большое!!!

Код:
 REM GENRE "ПОП"
REM DATE 80-90 
REM COMMENT "Оцифровка - Don_G"
TITLE "Се ля ви"
PERFORMER "С.С.Э."
FILE "С.С.Э. 80-90 - Се ля ви (1).flac" WAVE
  TRACK 01 AUDIO
TITLE "Ты говорила,говорила..."
PERFORMER ""
    INDEX 01 00:00:00
  TRACK 02 AUDIO
TITLE "Твои взгляды как бритвы..."
PERFORMER ""
    INDEX 01 02:24:58
  TRACK 03 AUDIO
TITLE "Экзотический край..."
PERFORMER ""
    INDEX 01 06:20:37
  TRACK 04 AUDIO
TITLE "Распущенные волосы..."
PERFORMER ""
    INDEX 01 09:59:39
  TRACK 05 AUDIO
TITLE "Отчего,не отчего..."
PERFORMER ""
    INDEX 01 13:35:21
  TRACK 06 AUDIO
TITLE "Честным быть до конца..."
PERFORMER ""
    INDEX 01 17:11:42
  TRACK 07 AUDIO
TITLE "Я видел крушение гор..."
PERFORMER ""
    INDEX 01 21:02:42
  TRACK 08 AUDIO
TITLE "Жила в обычном доме..."
PERFORMER ""
    INDEX 01 24:42:56
  TRACK 09 AUDIO
TITLE "Вечер синими глазами..."
PERFORMER ""
    INDEX 01 27:40:24
  TRACK 10 AUDIO
TITLE "Как будто ветер..."
PERFORMER ""
    INDEX 01 30:50:57
  TRACK 11 AUDIO
TITLE "Рисую я образ твой..."
PERFORMER ""
    INDEX 01 36:03:74
  TRACK 12 AUDIO
TITLE "Ты овернулась от меня..."
PERFORMER ""
    INDEX 01 40:29:09
  TRACK 13 AUDIO
TITLE "Солнце закатилось..."
PERFORMER ""
    INDEX 01 45:19:72
  TRACK 14 AUDIO
TITLE "Если б ты знал..."
PERFORMER ""
    INDEX 01 50:26:03
FILE "С.С.Э. 80-90 - Се ля ви (2).flac" WAVE
  TRACK 15 AUDIO
TITLE "Если нет любви..."
PERFORMER ""
    INDEX 01 00:00:00
  TRACK 16 AUDIO
TITLE "Я не в чём тебя не упрекаю..."
PERFORMER ""
    INDEX 01 03:59:41
  TRACK 17 AUDIO
TITLE "Я жил как все..."
PERFORMER ""
    INDEX 01 08:12:43
  TRACK 18 AUDIO
TITLE "Приговор вынес я сейчас..."
PERFORMER ""
    INDEX 01 13:07:17
  TRACK 19 AUDIO
TITLE "О Мари..."
PERFORMER ""
    INDEX 01 17:41:07
  TRACK 20 AUDIO
TITLE "Наша встреча не случайна..."
PERFORMER ""
    INDEX 01 22:03:00
  TRACK 21 AUDIO
TITLE "Мы встретились с тобою..."
PERFORMER ""
    INDEX 01 24:47:04
  TRACK 22 AUDIO
TITLE "У меня есть маленький компьютер..."
PERFORMER ""
    INDEX 01 28:13:19
  TRACK 23 AUDIO
TITLE "Закуси поцелуем..."
PERFORMER ""
    INDEX 01 32:23:45
  TRACK 24 AUDIO
TITLE "Всё было сначала..."
PERFORMER ""
    INDEX 01 36:15:48
  TRACK 25 AUDIO
TITLE "Ветерок твои обнял плечи..."
PERFORMER ""
    INDEX 01 39:33:43
  TRACK 26 AUDIO
TITLE "Гляжу в окно на Разгуляй..."
PERFORMER ""
    INDEX 01 42:54:74
  TRACK 27 AUDIO
TITLE "Первая любовь..."
PERFORMER ""
    INDEX 01 46:02:37
  TRACK 28 AUDIO
TITLE "Осторожно,нет проезда..."
PERFORMER ""
    INDEX 01 49:50:32
Саша (beloborod) вне форума   Ответить с цитированием
4 пользователя(ей) сказали cпасибо:
Алексей 69 (22.04.2017), Вит70 (22.04.2017), Дмитрий (22.04.2017), Don_G (22.04.2017)
Старый 23.04.2017, 04:18   #3
Вит70
Команда
 

Регистрация: 09.06.2011
Сообщений: 1,127
Сказал(а) спасибо: 2,680
Поблагодарили 1,792 раз(а) в 660 сообщениях
Вит70 репутация неоспоримаВит70 репутация неоспоримаВит70 репутация неоспоримаВит70 репутация неоспоримаВит70 репутация неоспоримаВит70 репутация неоспоримаВит70 репутация неоспоримаВит70 репутация неоспоримаВит70 репутация неоспоримаВит70 репутация неоспоримаВит70 репутация неоспорима
По умолчанию

Don_G, большое спасибо!!!!

Сторона 1:


05. Андрей Зубков - Золотые вечера
09. ЧП - А вдруг
10. Пламя – Снежная королева
11. Аркадий Ангел и гр.Солярис - Рисую я тебя
12. Шоколад - Прости, прощай
13. Пламя - Девочка с Приморского бульвара

Сторона 2:

01. Наутилус Помпилиус - Казанова
02. Анна Вески - Я брошусь в омут
03. Игорь Николаев - Фантастика
04. Алексей Глызин - Пепел любви
05. Валерий Чистяков - Мари
06. Михаил Михайлов - Наша встреча не случайна
07. Николай Караченцов - Твоя рука
08. Телескоп - Компьютер
09. Диалог - Се-ля-ви
10. Индекс 398 - Лабиринт
11. Анатолий Алёшин - Дуняша
12. Ольга Зарубина - Разгуляй
13. Любовь Привина - Первая любовь
14. Филипп Киркоров - Осторожно
Вит70 вне форума   Ответить с цитированием
2 пользователя(ей) сказали cпасибо:
Don_G (23.04.2017), Саша (beloborod) (23.04.2017)
Старый 23.04.2017, 07:28   #4
belomor30
Пользователь
 
Аватар для belomor30
 

Регистрация: 28.10.2015
Адрес: Город Пермь
Сообщений: 43
Сказал(а) спасибо: 292
Поблагодарили 32 раз(а) в 20 сообщениях
belomor30 - весьма и весьма положительная личностьbelomor30 - весьма и весьма положительная личность
По умолчанию

Сторона 1:

7. НРГ (Новая Русская Группа) - Но Мы Не Слышим
belomor30 вне форума   Ответить с цитированием
Пользователь сказал cпасибо:
Don_G (23.04.2017)
Ответ

Закладки

Опции темы
Опции просмотра

Ваши права в разделе
Вы не можете создавать новые темы
Вы не можете отвечать в темах
Вы не можете прикреплять вложения
Вы не можете редактировать свои сообщения

BB коды Вкл.
Смайлы Вкл.
[IMG] код Вкл.
HTML код Выкл.

Быстрый переход


Часовой пояс GMT, время: 14:08.


Powered by vBulletin® Version 3.8.2
Copyright ©2000 - 2017, Jelsoft Enterprises Ltd. Перевод: zCarot
Rambler's Top100 Республика Татарстан - Каталог сайтов