Все Тут Online
Все Тут Online
Новые сообщения
Все сообщения за последних 24 часа
Расширенный Поиск

   
Меню сайта:
Главная
Форум
Чат
- Online приложения:
- Игры
- Выбор стиля:
- FAQ
- Для начинающих

Вернуться   Все Тут Online > МАГНИТИЗДАТ (Оцифровки Кассет и Бобин) (lossless) > РОК МУЗЫКА (Lossless) > Отечественная

Старый 09.01.2019, 11:47   #1
Капитан_Воронин
Команда
 

Регистрация: 03.07.2011
Сообщений: 467
Сказал(а) спасибо: 9
Поблагодарили 1,113 раз(а) в 293 сообщениях
Капитан_Воронин репутация неоспоримаКапитан_Воронин репутация неоспоримаКапитан_Воронин репутация неоспоримаКапитан_Воронин репутация неоспоримаКапитан_Воронин репутация неоспоримаКапитан_Воронин репутация неоспоримаКапитан_Воронин репутация неоспоримаКапитан_Воронин репутация неоспоримаКапитан_Воронин репутация неоспоримаКапитан_Воронин репутация неоспоримаКапитан_Воронин репутация неоспорима
По умолчанию Крематорий – Презентация Двойного альбома в ДК Горбунова 26 марта 1993 года

Магнитофон brAun С3
Программа WaveLab

Крематорий – Презентация Двойного альбома в ДК Горбунова 26 марта 1993 года



Сторона А:
1. Проходящие мимо
2. Реанимационная машина
3. Клаустрофобия
4. Адольф
5. Брат во Христе
6. Крематорий
7. Лепрозорий
8. Наше время
9. Сексуальная кошка
10. Калигула
11. Твари
12. Эпитафия
13. Аутсайдер
14. Газы
15. Хабибулин (кусок)

https://yadi.sk/mail?hash=z3VPEp7Lh%...&uid=250664181




Сторона В:
16. Винные мемуары
17. Дрянь
18. Гончие псы
19. Хари-Рама
20. Последний шанс
21. Клубника со льдом
22. Таня
23. Квазимодо
24. Зомби
25. Больной
26. Маленькая девочка
27. Америка
28. Безобразная Эльза (не до конца)

https://yadi.sk/mail?hash=UDWxMZ%2BY...&uid=250664181

Этот концерт отличается от того, что я выкладывал ранее.
Капитан_Воронин вне форума   Ответить с цитированием
5 пользователя(ей) сказали cпасибо:
Дмитрий (09.01.2019), belomor30 (10.01.2019), iksel1 (09.01.2019), ledcom (14.01.2019), symbol007 (09.01.2019)
Старый 09.01.2019, 18:45   #2
symbol007
Новичок
 

Регистрация: 04.05.2017
Сообщений: 18
Сказал(а) спасибо: 6
Поблагодарили 6 раз(а) в 5 сообщениях
symbol007 на пути к лучшему
По умолчанию

Может есть КУЙ?
symbol007 вне форума   Ответить с цитированием
Пользователь сказал cпасибо:
iksel1 (09.01.2019)
Старый 09.01.2019, 18:47   #3
Дмитрий
Music Group
 
Аватар для Дмитрий
 

Регистрация: 12.12.2008
Адрес: Москва прошлого тысячелетия.
Сообщений: 119,144
Сказал(а) спасибо: 29,141
Поблагодарили 131,903 раз(а) в 49,532 сообщениях
Дмитрий репутация неоспоримаДмитрий репутация неоспоримаДмитрий репутация неоспоримаДмитрий репутация неоспоримаДмитрий репутация неоспоримаДмитрий репутация неоспоримаДмитрий репутация неоспоримаДмитрий репутация неоспоримаДмитрий репутация неоспоримаДмитрий репутация неоспоримаДмитрий репутация неоспорима
По умолчанию

symbol007, CUE Беломорыч позже напишет.
На это время надо, слушать, размечать надо...
__________________
-
Дмитрий вне форума   Ответить с цитированием
Пользователь сказал cпасибо:
iksel1 (09.01.2019)
Старый 10.01.2019, 03:48   #4
belomor30
Команда
 
Аватар для belomor30
 

Регистрация: 28.10.2015
Адрес: Город Пермь
Сообщений: 800
Сказал(а) спасибо: 754
Поблагодарили 1,255 раз(а) в 525 сообщениях
belomor30 репутация неоспоримаbelomor30 репутация неоспоримаbelomor30 репутация неоспоримаbelomor30 репутация неоспоримаbelomor30 репутация неоспоримаbelomor30 репутация неоспоримаbelomor30 репутация неоспоримаbelomor30 репутация неоспоримаbelomor30 репутация неоспоримаbelomor30 репутация неоспоримаbelomor30 репутация неоспорима
По умолчанию

КУЙ сегодня вечером оформлю. Вчера сил не хватило на этот процесс. Первый рабочий день после длинных выходных - организм воспротивился...
belomor30 на форуме   Ответить с цитированием
2 пользователя(ей) сказали cпасибо:
Дмитрий (10.01.2019), Феликс (10.01.2019)
Старый 10.01.2019, 17:14   #5
belomor30
Команда
 
Аватар для belomor30
 

Регистрация: 28.10.2015
Адрес: Город Пермь
Сообщений: 800
Сказал(а) спасибо: 754
Поблагодарили 1,255 раз(а) в 525 сообщениях
belomor30 репутация неоспоримаbelomor30 репутация неоспоримаbelomor30 репутация неоспоримаbelomor30 репутация неоспоримаbelomor30 репутация неоспоримаbelomor30 репутация неоспоримаbelomor30 репутация неоспоримаbelomor30 репутация неоспоримаbelomor30 репутация неоспоримаbelomor30 репутация неоспоримаbelomor30 репутация неоспорима
По умолчанию

А вот и КУЙ, налетай чесной народ:

Крематорий (p)1993 Презентация Двойного альбома в ДК Горбунова 26.03.1993

Код:
REM GENRE Rock
REM DATE 1993
REM COMMENT "Cassette Deck 'brAun С3'->WaveLab"
REM COMMENT "Label: captain Voronin, MC"
REM COMMENT "Specially for http://vsetutonline.com"
REM COMMENT "CUE-Maker '---belomor30---'"
REM COMMENT "Оцифровка - Капитан_Воронин"
PERFORMER "Крематорий"
TITLE "Презентация Двойного альбома в ДК им.Горбунова 26.03.1993"
FILE "93 Крематорий - Презентация Двойного Альбома в ДК Горбунова 26 марта часть 1.wav" WAVE
  TRACK 01 AUDIO
    TITLE "Проходящие мимо"
    INDEX 01 00:00:00
  TRACK 02 AUDIO
    TITLE "Реанимационная машина"
    INDEX 01 02:20:69
  TRACK 03 AUDIO
    TITLE "Клаустрофобия"
    INDEX 01 05:58:00
  TRACK 04 AUDIO
    TITLE "Адольф"
    INDEX 01 10:57:50
  TRACK 05 AUDIO
    TITLE "Брат во Христе"
    INDEX 01 14:03:25
  TRACK 06 AUDIO
    TITLE "Крематорий"
    INDEX 01 17:47:00
  TRACK 07 AUDIO
    TITLE "Лепрозорий"
    INDEX 01 19:37:69
  TRACK 08 AUDIO
    TITLE "Наше время"
    INDEX 01 23:12:00
  TRACK 09 AUDIO
    TITLE "Сексуальная кошка"
    INDEX 01 27:52:00
  TRACK 10 AUDIO
    TITLE "Калигула"
    INDEX 01 30:59:00
  TRACK 11 AUDIO
    TITLE "Твари"
    INDEX 01 35:01:17
  TRACK 12 AUDIO
    TITLE "Эпитафия"
    INDEX 01 37:55:00
  TRACK 13 AUDIO
    TITLE "Аутсайдер"
    INDEX 01 41:12:00
  TRACK 14 AUDIO
    TITLE "Газы"
    INDEX 01 44:22:34
  TRACK 15 AUDIO
    TITLE "Хабибулин (начало)"
    INDEX 01 46:53:32

FILE "93 Крематорий - Презентация Двойного Альбома в ДК Горбунова 26 марта часть 2.wav" WAVE
  TRACK 16 AUDIO
    TITLE "Винные мемуары"
    INDEX 01 00:03:00
  TRACK 17 AUDIO
    TITLE "Дрянь"
    INDEX 01 03:32:00
  TRACK 18 AUDIO
    TITLE "Гончие псы"
    INDEX 01 08:36:00
  TRACK 19 AUDIO
    TITLE "Хари-Рама"
    INDEX 01 11:28:00
  TRACK 20 AUDIO
    TITLE "Последний шанс"
    INDEX 01 15:19:00
  TRACK 21 AUDIO
    TITLE "Клубника со льдом"
    INDEX 01 19:01:30
  TRACK 22 AUDIO
    TITLE "Таня"
    INDEX 01 21:36:00
  TRACK 23 AUDIO
    TITLE "Квазимодо"
    INDEX 01 26:11:00
  TRACK 24 AUDIO
    TITLE "Зомби"
    INDEX 01 30:56:27
  TRACK 25 AUDIO
    TITLE "Больной"
    INDEX 01 35:16:59
  TRACK 26 AUDIO
    TITLE "Маленькая девочка"
    INDEX 01 39:23:00
  TRACK 27 AUDIO
    TITLE "Америка"
    INDEX 01 41:56:00
  TRACK 28 AUDIO
    TITLE "Безобразная Эльза (не до конца)"
    INDEX 01 45:21:10
belomor30 на форуме   Ответить с цитированием
2 пользователя(ей) сказали cпасибо:
Дмитрий (10.01.2019), Феликс (11.01.2019)
Старый 11.01.2019, 17:37   #6
symbol007
Новичок
 

Регистрация: 04.05.2017
Сообщений: 18
Сказал(а) спасибо: 6
Поблагодарили 6 раз(а) в 5 сообщениях
symbol007 на пути к лучшему
По умолчанию

Две разные версии этого концерта, и где же правильный трек-лист?
symbol007 вне форума   Ответить с цитированием
Старый 12.01.2019, 06:42   #7
belomor30
Команда
 
Аватар для belomor30
 

Регистрация: 28.10.2015
Адрес: Город Пермь
Сообщений: 800
Сказал(а) спасибо: 754
Поблагодарили 1,255 раз(а) в 525 сообщениях
belomor30 репутация неоспоримаbelomor30 репутация неоспоримаbelomor30 репутация неоспоримаbelomor30 репутация неоспоримаbelomor30 репутация неоспоримаbelomor30 репутация неоспоримаbelomor30 репутация неоспоримаbelomor30 репутация неоспоримаbelomor30 репутация неоспоримаbelomor30 репутация неоспоримаbelomor30 репутация неоспорима
По умолчанию

Цитата:
Сообщение от symbol007 Посмотреть сообщение
Две разные версии этого концерта, и где же правильный трек-лист?
Это разные концерты, в разные дни. Первый 25.03.93, а этот 26.03.1993 года.
belomor30 на форуме   Ответить с цитированием
Пользователь сказал cпасибо:
Феликс (12.01.2019)
Ответ

Закладки

Опции темы
Опции просмотра

Ваши права в разделе
Вы не можете создавать новые темы
Вы не можете отвечать в темах
Вы не можете прикреплять вложения
Вы не можете редактировать свои сообщения

BB коды Вкл.
Смайлы Вкл.
[IMG] код Вкл.
HTML код Выкл.

Быстрый переход


Часовой пояс GMT, время: 17:15.


Powered by vBulletin® Version 3.8.2
Copyright ©2000 - 2019, Jelsoft Enterprises Ltd. Перевод: zCarot
Rambler's Top100 Республика Татарстан - Каталог сайтов