Все Тут Online
Все Тут Online
Новые сообщения
Все сообщения за последних 24 часа
Расширенный Поиск

   
Меню сайта:
Главная
Форум
Чат
- Online приложения:
- Игры
- Выбор стиля:
- FAQ
- Для начинающих

Вернуться   Все Тут Online > МАГНИТИЗДАТ (Оцифровки Кассет и Бобин) (lossless) > В гостях у Бориса 63 (Оцифровки с бобин и с кассет) > Шансон, Авторская песня и Фолк (Lossless)

Старый 10.01.2019, 07:25   #1
Борис 63
Модератор раздела оцифровок
 
Аватар для Борис 63
 

Регистрация: 01.02.2010
Адрес: СССР Москва
Сообщений: 14,153
Сказал(а) спасибо: 8,157
Поблагодарили 47,702 раз(а) в 7,598 сообщениях
Борис 63 репутация неоспоримаБорис 63 репутация неоспоримаБорис 63 репутация неоспоримаБорис 63 репутация неоспоримаБорис 63 репутация неоспоримаБорис 63 репутация неоспоримаБорис 63 репутация неоспоримаБорис 63 репутация неоспоримаБорис 63 репутация неоспоримаБорис 63 репутация неоспоримаБорис 63 репутация неоспорима
По умолчанию (24/96) Владимир Утесов -Белые березы- 2000 (lossless)





Оцифровка с кассеты.

Аппарат - Akai gx 75

01 Владимир Утесов - Утесов жив
02 Владимир Утесов - Белые березы
03 Владимир Утесов - Гражданин судья
04 Владимир Утесов - По этапу не в Анапу
05 Владимир Утесов - Письмо к матери
06 Владимир Утесов - Бубновый туз
07 Владимир Утесов - Косяк
08 Владимир Утесов - Никакая прикатила
09 Владимир Утесов - Журавли
10 Владимир Утесов - Пой, гитара
11 Владимир Утесов - Лиловый негр
12 Владимир Утесов - От Нью-Йорка до Парижа
13 Владимир Утесов - Белые березы

ссылка


Скрытый текст (вы должны зарегистрироваться или войти под своим логином):
У вас нет прав чтобы видеть скрытый текст, содержащейся здесь.
__________________
Ccылка на тему: Как скачивать с Яндекс диска!

Чтобы быстро скачать чужой опубликованный файл, сохраните его на свой Диск. На вашем Диске файл окажется мгновенно, а свои файлы вы всегда можете скачать без ограничений.
Борис 63 вне форума   Ответить с цитированием
8 пользователя(ей) сказали cпасибо:
Бархан (10.01.2019), Глебушка (10.01.2019), Игорюха (10.01.2019), Igor71 (10.01.2019), Korvet (25.01.2019), kurort (10.01.2019), Саша (beloborod) (10.01.2019), Romis2010 (13.01.2019)
Старый 10.01.2019, 10:55   #2
Глебушка
Местный
 
Аватар для Глебушка
 

Регистрация: 04.03.2013
Адрес: Россия город Саранск
Сообщений: 260
Сказал(а) спасибо: 800
Поблагодарили 211 раз(а) в 76 сообщениях
Глебушка за этого человека можно гордитсяГлебушка за этого человека можно гордитсяГлебушка за этого человека можно гордитсяГлебушка за этого человека можно гордитсяГлебушка за этого человека можно гордитсяГлебушка за этого человека можно гордитсяГлебушка за этого человека можно гордитсяГлебушка за этого человека можно гордится
По умолчанию

http://bloknot.ru/obshhestvo/potomok...mi-241392.html
Глебушка вне форума   Ответить с цитированием
3 пользователя(ей) сказали cпасибо:
Бархан (10.01.2019), aqwa (10.01.2019), Romis2010 (13.01.2019)
Старый 05.03.2019, 21:07   #3
Дмитрий
Music Group
 
Аватар для Дмитрий
 

Регистрация: 12.12.2008
Адрес: Москва прошлого тысячелетия.
Сообщений: 119,059
Сказал(а) спасибо: 29,126
Поблагодарили 131,787 раз(а) в 49,502 сообщениях
Дмитрий репутация неоспоримаДмитрий репутация неоспоримаДмитрий репутация неоспоримаДмитрий репутация неоспоримаДмитрий репутация неоспоримаДмитрий репутация неоспоримаДмитрий репутация неоспоримаДмитрий репутация неоспоримаДмитрий репутация неоспоримаДмитрий репутация неоспоримаДмитрий репутация неоспорима
По умолчанию

Код:
REM GENRE Шансон
REM DATE 2000
REM COMMENT Оцифровка Борим 63
PERFORMER "Владимир Утесов"
TITLE "Белые Березы"
FILE "Утесов.flac" WAVE
  TRACK 01 AUDIO
    TITLE "Утесов жив"
    INDEX 01 00:00:00
  TRACK 02 AUDIO
    TITLE "Белые березы"
    INDEX 01 07:11:24
  TRACK 03 AUDIO
    TITLE "Гражданин судья"
    INDEX 01 12:19:49
  TRACK 04 AUDIO
    TITLE "По этапу не в Анапу"
    INDEX 01 16:01:24
  TRACK 05 AUDIO
    TITLE "Письмо к матери"
    INDEX 01 19:57:22
  TRACK 06 AUDIO
    TITLE "Бубновый туз"
    INDEX 01 25:19:38
  TRACK 07 AUDIO
    TITLE "Косяк"
    INDEX 01 29:45:11
  TRACK 08 AUDIO
    TITLE "Никакая прикатила"
    INDEX 01 34:42:60
  TRACK 09 AUDIO
    TITLE "Журавли"
    INDEX 01 38:14:13
  TRACK 10 AUDIO
    TITLE "Пой, гитара"
    INDEX 01 42:37:05
  TRACK 11 AUDIO
    TITLE "Лиловый негр"
    INDEX 01 46:01:73
  TRACK 12 AUDIO
    TITLE "От Нью-Йорка до Парижа"
    INDEX 01 50:24:57
  TRACK 13 AUDIO
    TITLE "Белые березы"
    INDEX 01 53:42:57
__________________
-
Дмитрий вне форума   Ответить с цитированием
2 пользователя(ей) сказали cпасибо:
aqwa (06.03.2019), Korvet (06.03.2019)
Ответ

Закладки

Опции темы
Опции просмотра

Ваши права в разделе
Вы не можете создавать новые темы
Вы не можете отвечать в темах
Вы не можете прикреплять вложения
Вы не можете редактировать свои сообщения

BB коды Вкл.
Смайлы Вкл.
[IMG] код Вкл.
HTML код Выкл.

Быстрый переход


Часовой пояс GMT, время: 23:35.


Powered by vBulletin® Version 3.8.2
Copyright ©2000 - 2019, Jelsoft Enterprises Ltd. Перевод: zCarot
Rambler's Top100 Республика Татарстан - Каталог сайтов