Все Тут Online
Все Тут Online
Новые сообщения
Все сообщения за последних 24 часа
Расширенный Поиск

   
Меню сайта:
Главная
Форум
Чат
- Online приложения:
- Игры
- Выбор стиля:
- FAQ
- Для начинающих

Вернуться   Все Тут Online > МАГНИТИЗДАТ (Оцифровки Кассет и Бобин) (lossless) > В гостях у Бориса 63 (Оцифровки с бобин и с кассет) > Шансон, Авторская песня и Фолк (Lossless)

Старый 10.01.2019, 08:19   #1
Борис 63
Модератор раздела оцифровок
 
Аватар для Борис 63
 

Регистрация: 01.02.2010
Адрес: СССР Москва
Сообщений: 14,155
Сказал(а) спасибо: 8,162
Поблагодарили 47,724 раз(а) в 7,600 сообщениях
Борис 63 репутация неоспоримаБорис 63 репутация неоспоримаБорис 63 репутация неоспоримаБорис 63 репутация неоспоримаБорис 63 репутация неоспоримаБорис 63 репутация неоспоримаБорис 63 репутация неоспоримаБорис 63 репутация неоспоримаБорис 63 репутация неоспоримаБорис 63 репутация неоспоримаБорис 63 репутация неоспорима
По умолчанию (24/96) На100ящий шансон 1999 год (lossless)







Оцифровка с кассеты.
Подающий аппарат - на фото.

01 Михаил Круг - Здравствуйте!
02 Владимир Утесов - Белые Березы
03 Михаил Гулько - В Красоярских Лагерях
04 Трофим - Дайте Мне Что-Нибудь
05 Лесоповал - Голубика
06 Юрий Алмазов - Одесская История
07 Сергей Русских - Спросил У Вовки Я
08 Виктор Чупретов - Колючка Ржавая
09 Касим - Крепись Братва
10 Алексей Гализдра - Мой Ангел
11 Лора - Просто Вор
12 Слава Медяник - Шкурный Вопрос
13 Вячеслав Черный - Волки
14 Юрий Алмазов - Вне Закона

ссылка


Скрытый текст (вы должны зарегистрироваться или войти под своим логином):
У вас нет прав чтобы видеть скрытый текст, содержащейся здесь.
__________________
Ccылка на тему: Как скачивать с Яндекс диска!

Чтобы быстро скачать чужой опубликованный файл, сохраните его на свой Диск. На вашем Диске файл окажется мгновенно, а свои файлы вы всегда можете скачать без ограничений.
Борис 63 вне форума   Ответить с цитированием
6 пользователя(ей) сказали cпасибо:
Бархан (10.01.2019), Александр4937 (04.03.2019), Игорюха (06.03.2019), Igor71 (10.01.2019), Саша (beloborod) (10.01.2019), zitrus (10.01.2019)
Старый 10.01.2019, 15:50   #2
Бархан
VIP
 

Регистрация: 08.05.2016
Сообщений: 926
Сказал(а) спасибо: 3,375
Поблагодарили 569 раз(а) в 388 сообщениях
Бархан репутация неоспоримаБархан репутация неоспоримаБархан репутация неоспоримаБархан репутация неоспоримаБархан репутация неоспоримаБархан репутация неоспоримаБархан репутация неоспоримаБархан репутация неоспоримаБархан репутация неоспоримаБархан репутация неоспоримаБархан репутация неоспорима
По умолчанию

Борис 63,
Отлично! Спасибо большущее! Замечательный сборник. Качество на высоте!
Бархан на форуме   Ответить с цитированием
Пользователь сказал cпасибо:
Борис 63 (10.01.2019)
Старый 05.03.2019, 20:58   #3
Дмитрий
Music Group
 
Аватар для Дмитрий
 

Регистрация: 12.12.2008
Адрес: Москва прошлого тысячелетия.
Сообщений: 119,144
Сказал(а) спасибо: 29,141
Поблагодарили 131,903 раз(а) в 49,532 сообщениях
Дмитрий репутация неоспоримаДмитрий репутация неоспоримаДмитрий репутация неоспоримаДмитрий репутация неоспоримаДмитрий репутация неоспоримаДмитрий репутация неоспоримаДмитрий репутация неоспоримаДмитрий репутация неоспоримаДмитрий репутация неоспоримаДмитрий репутация неоспоримаДмитрий репутация неоспорима
По умолчанию

Код:
REM GENRE 1999
PERFORMER "Сборник"
TITLE "На100ящий Шансон"
FILE "на100ящий.flac" WAVE
  TRACK 01 AUDIO
PERFORMER "Михаил Круг"
TITLE "Здравствуйте!"
    INDEX 01 00:00:00
  TRACK 02 AUDIO
PERFORMER "Владимир Утесов"
TITLE "Белые Березы"
    INDEX 01 02:32:17
  TRACK 03 AUDIO
PERFORMER "Михаил Гулько"
TITLE "В Красоярских Лагерях"
    INDEX 01 07:45:21
  TRACK 04 AUDIO
PERFORMER "Трофим"
TITLE "Дайте Мне Что-Нибудь"
    INDEX 01 13:02:35
  TRACK 05 AUDIO
PERFORMER "Лесоповал"
TITLE "Голубика"
    INDEX 01 16:13:34
  TRACK 06 AUDIO
PERFORMER "Юрий Алмазов"
TITLE "Одесская История"
    INDEX 01 19:39:26
  TRACK 07 AUDIO
PERFORMER "Сергей Русских"
TITLE "Спросил У Вовки Я"
    INDEX 01 24:02:65
  TRACK 08 AUDIO
PERFORMER "Виктор Чупретов"
TITLE "Колючка Ржавая"
    INDEX 01 26:49:51
  TRACK 09 AUDIO
PERFORMER "Касим"
TITLE "Крепись Братва"
    INDEX 01 31:04:47
  TRACK 10 AUDIO
PERFORMER "Алексей Гализдра"
TITLE "Мой Ангел"
    INDEX 01 33:49:51
  TRACK 11 AUDIO
PERFORMER "Лора"
TITLE "Просто Вор"
    INDEX 01 37:26:17
  TRACK 12 AUDIO
PERFORMER "Слава Медяник"
TITLE "Шкурный Вопрос"
    INDEX 01 41:33:43
  TRACK 13 AUDIO
PERFORMER "Вячеслав Черный"
TITLE "Волки"
    INDEX 01 45:31:04
  TRACK 14 AUDIO
PERFORMER "Юрий Алмазов"
TITLE "Вне Закона"
    INDEX 01 51:11:33
__________________
-
Дмитрий вне форума   Ответить с цитированием
Ответ

Закладки

Опции темы
Опции просмотра

Ваши права в разделе
Вы не можете создавать новые темы
Вы не можете отвечать в темах
Вы не можете прикреплять вложения
Вы не можете редактировать свои сообщения

BB коды Вкл.
Смайлы Вкл.
[IMG] код Вкл.
HTML код Выкл.

Быстрый переход


Часовой пояс GMT, время: 17:18.


Powered by vBulletin® Version 3.8.2
Copyright ©2000 - 2019, Jelsoft Enterprises Ltd. Перевод: zCarot
Rambler's Top100 Республика Татарстан - Каталог сайтов