Все Тут Online
Все Тут Online
Новые сообщения
Все сообщения за последних 24 часа
Расширенный Поиск

   
Меню сайта:
Главная
Форум
Чат
- Online приложения:
- Игры
- Выбор стиля:
- FAQ
- Для начинающих

Вернуться   Все Тут Online > МАГНИТИЗДАТ (Оцифровки Кассет и Бобин) (lossless) > В гостях у Бориса 63 (Оцифровки с бобин и с кассет) > Поп Музыка (Lossless)

Старый 20.03.2018, 14:36   #1
Борис 63
Модератор раздела оцифровок
 
Аватар для Борис 63
 

Регистрация: 01.02.2010
Адрес: СССР Москва
Сообщений: 14,143
Сказал(а) спасибо: 8,144
Поблагодарили 47,662 раз(а) в 7,592 сообщениях
Борис 63 репутация неоспоримаБорис 63 репутация неоспоримаБорис 63 репутация неоспоримаБорис 63 репутация неоспоримаБорис 63 репутация неоспоримаБорис 63 репутация неоспоримаБорис 63 репутация неоспоримаБорис 63 репутация неоспоримаБорис 63 репутация неоспоримаБорис 63 репутация неоспоримаБорис 63 репутация неоспорима
По умолчанию (24/96) С.С.Э. - Колдовское озеро (1990) (lossless)






Оцифровка с катушки купленной для форума Александром (Вит70)

Спасибо ему.

С.С.Э. 1990 - Колдовское озеро

Сторона 1

01 Добрынин Вячеслав - Колдовское озеро
02 Белоусов Евгений - Такое короткое лето
03 Нескучный сад - Перееду в город
04 Семенова Е. - Вечерами
05 Бабай Евгений - Вспомни ты
06 Поп-сервис - 29 гвоздик
07 Е.Базыкина - Авторалли
08 Белянин Валерий - Кооперация
09 В.Сутормин - В отпуске
10 Любэ - Ночь
11 Лев Лещенко - Так уж получилось
12 В.Пресняков - Ты скажи

Сторона 2

13 Добрынин Вячеслав - Нежная
14 Маша Распутина - Городская сумашедшая
15 Телефон доверия - Где тебя искать
16 Герасимова Алена - Категоричным быть не стоит
17 Старый примус - Небо лица твоего
18 Караченцов Николай - Самовар
19 Семенова Е. - Мне сейчас так легко
20 Бабай Евгений - Не везет
21 Биоконструктор - Трамвай
22 Хоралов Аркадий - Убежать бы
23 НРГ - Светлый день
24 Минаев Сергей - Вера


Скрытый текст (вы должны зарегистрироваться или войти под своим логином):
У вас нет прав чтобы видеть скрытый текст, содержащейся здесь.


mp3
Скрытый текст (вы должны зарегистрироваться или войти под своим логином):
У вас нет прав чтобы видеть скрытый текст, содержащейся здесь.
__________________
Ccылка на тему: Как скачивать с Яндекс диска!

Чтобы быстро скачать чужой опубликованный файл, сохраните его на свой Диск. На вашем Диске файл окажется мгновенно, а свои файлы вы всегда можете скачать без ограничений.

Последний раз редактировалось Борис 63; 20.03.2018 в 17:37.
Борис 63 вне форума   Ответить с цитированием
8 пользователя(ей) сказали cпасибо:
Владимир 1733 (29.11.2018), ВладиславВ (21.03.2018), Александр9841 (29.11.2018), Вит70 (20.03.2018), Вячеслав1972 (20.03.2018), belomor30 (27.03.2018), Boor (28.11.2018), Саша (beloborod) (20.03.2018)
Старый 20.03.2018, 15:02   #2
Вит70
Команда
 

Регистрация: 09.06.2011
Сообщений: 1,506
Сказал(а) спасибо: 3,689
Поблагодарили 2,725 раз(а) в 981 сообщениях
Вит70 репутация неоспоримаВит70 репутация неоспоримаВит70 репутация неоспоримаВит70 репутация неоспоримаВит70 репутация неоспоримаВит70 репутация неоспоримаВит70 репутация неоспоримаВит70 репутация неоспоримаВит70 репутация неоспоримаВит70 репутация неоспоримаВит70 репутация неоспорима
По умолчанию

Борис 63, большое спасибо!!!
Вит70 на форуме   Ответить с цитированием
3 пользователя(ей) сказали cпасибо:
ВладиславВ (21.03.2018), Борис 63 (20.03.2018), Вячеслав1972 (20.03.2018)
Старый 20.03.2018, 16:50   #3
Вит70
Команда
 

Регистрация: 09.06.2011
Сообщений: 1,506
Сказал(а) спасибо: 3,689
Поблагодарили 2,725 раз(а) в 981 сообщениях
Вит70 репутация неоспоримаВит70 репутация неоспоримаВит70 репутация неоспоримаВит70 репутация неоспоримаВит70 репутация неоспоримаВит70 репутация неоспоримаВит70 репутация неоспоримаВит70 репутация неоспоримаВит70 репутация неоспоримаВит70 репутация неоспоримаВит70 репутация неоспорима
По умолчанию

С.С.Э. 1990 - Колдовское озеро

Сторона 1

01 Добрынин Вячеслав - Колдовское озеро
02 Белоусов Евгений - Такое короткое лето
03 Нескучный сад - Перееду в город
04 Семенова Е. - Вечерами
05 Бабай Евгений - Вспомни ты
06 Поп-сервис - 29 гвоздик
07 Е.Базыкина - Авторалли
08 Белянин Валерий - Кооперация
09 В.Сутормин - В отпуске
10 Любэ - Ночь
11 Лев Лещенко - Так уж получилось
12 В.Пресняков - Ты скажи

Сторона 2

13 Добрынин Вячеслав - Нежная
14 Маша Распутина - Городская сумашедшая
15 Телефон доверия - Где тебя искать
16 Герасимова Алена - Категоричным быть не стоит
17 Старый примус - Небо лица твоего
18 Караченцов Николай - Самовар
19 Семенова Е. - Мне сейчас так легко
20 Бабай Евгений - Не везет
21 Биоконструктор - Трамвай
22 Хоралов Аркадий - Убежать бы
23 НРГ - Светлый день
24 Минаев Сергей - Вера

Последний раз редактировалось Вит70; 20.03.2018 в 17:21.
Вит70 на форуме   Ответить с цитированием
3 пользователя(ей) сказали cпасибо:
ВладиславВ (21.03.2018), Борис 63 (20.03.2018), Саша (beloborod) (20.03.2018)
Старый 20.03.2018, 20:58   #4
Дмитрий
Music Group
 
Аватар для Дмитрий
 

Регистрация: 12.12.2008
Адрес: Москва прошлого тысячелетия.
Сообщений: 118,776
Сказал(а) спасибо: 29,094
Поблагодарили 131,393 раз(а) в 49,420 сообщениях
Дмитрий репутация неоспоримаДмитрий репутация неоспоримаДмитрий репутация неоспоримаДмитрий репутация неоспоримаДмитрий репутация неоспоримаДмитрий репутация неоспоримаДмитрий репутация неоспоримаДмитрий репутация неоспоримаДмитрий репутация неоспоримаДмитрий репутация неоспоримаДмитрий репутация неоспорима
Отправить сообщение для Дмитрий с помощью Skype™
По умолчанию

https://yadi.sk/d/40XwMmc-3Tat7p

Код:
REM GENRE "Поп"
REM DATE 1990
REM COMMENT "Оцифровка - Борис 63"
TITLE "Колдовское озеро"
PERFORMER "С.С.Э."
FILE "1 ст.flac" WAVE
  TRACK 01 AUDIO
TITLE "Колдовское озеро"
PERFORMER "Добрынин Вячеслав"
    INDEX 01 00:00:00
  TRACK 02 AUDIO
TITLE "Такое короткое лето"
PERFORMER "Белоусов Евгений"
    INDEX 01 02:46:39
  TRACK 03 AUDIO
TITLE "Перееду в город"
PERFORMER "Нескучный сад"
    INDEX 01 07:07:27
  TRACK 04 AUDIO
TITLE "Вечерами"
PERFORMER "Семенова Е."
    INDEX 01 10:49:66
  TRACK 05 AUDIO
TITLE "Вспомни ты"
PERFORMER "Бабай Евгений"
    INDEX 01 13:17:34
  TRACK 06 AUDIO
TITLE "29 гвоздик"
PERFORMER "Поп-сервис"
    INDEX 01 17:01:04
  TRACK 07 AUDIO
TITLE "Авто ралли"
PERFORMER "Е.Базыкина"
    INDEX 01 21:45:13
  TRACK 08 AUDIO
TITLE "Кооперация"
PERFORMER "Белянин Валерий"
    INDEX 01 25:13:42
  TRACK 09 AUDIO
TITLE "В отпуске"
PERFORMER "В.Сутормин"
    INDEX 01 28:59:50
  TRACK 10 AUDIO
TITLE "Ночь"
PERFORMER "Любэ"
    INDEX 01 31:54:61
  TRACK 11 AUDIO
TITLE "Так уж получилось"
PERFORMER "Лев Лещенко"
    INDEX 01 35:18:12
  TRACK 12 AUDIO
TITLE "Ты скажи"
PERFORMER "В.Пресняков"
    INDEX 01 39:07:09
FILE "2 ст.flac" WAVE
  TRACK 13 AUDIO
TITLE "Нежная"
PERFORMER "Добрынин Вячеслав"
    INDEX 01 00:00:00
  TRACK 14 AUDIO
TITLE "Городская сумашедшая"
PERFORMER "Маша Распутина"
    INDEX 01 03:37:23
  TRACK 15 AUDIO
TITLE "Где тебя искать"
PERFORMER "Телефон доверия"
    INDEX 01 07:05:21
  TRACK 16 AUDIO
TITLE "Категоричным быть не стоит"
PERFORMER "Герасимова Алена"
    INDEX 01 10:25:02
  TRACK 17 AUDIO
TITLE "Небо лица твоего"
PERFORMER "Старый примус"
    INDEX 01 13:22:52
  TRACK 18 AUDIO
TITLE "Самовар"
PERFORMER "Караченцов Николай"
    INDEX 01 17:09:28
  TRACK 19 AUDIO
TITLE "Мне сейчас так легко"
PERFORMER "Семенова Е."
    INDEX 01 20:20:60
  TRACK 20 AUDIO
TITLE "Не везет"
PERFORMER "Бабай Евгений"
    INDEX 01 25:22:51
  TRACK 21 AUDIO
TITLE "Трамвай"
PERFORMER "Биоконструктор"
    INDEX 01 28:31:63
  TRACK 22 AUDIO
TITLE "Убежать бы"
PERFORMER "Хоралов Аркадий"
    INDEX 01 32:20:65
  TRACK 23 AUDIO
TITLE "Светлый день"
PERFORMER "НРГ"
    INDEX 01 36:42:41
  TRACK 24 AUDIO
TITLE "Вера"
PERFORMER "Минаев Сергей"
    INDEX 01 40:47:53
__________________
Кто желает поддержать форум (ВТО vsetutonline.com) напишите мне в личку!
Cпасибо Вам большое!
Дмитрий вне форума   Ответить с цитированием
4 пользователя(ей) сказали cпасибо:
ВладиславВ (21.03.2018), Вит70 (21.03.2018), Борис 63 (21.03.2018), Саша (beloborod) (20.03.2018)
Старый 28.11.2018, 19:37   #5
Дмитрий
Music Group
 
Аватар для Дмитрий
 

Регистрация: 12.12.2008
Адрес: Москва прошлого тысячелетия.
Сообщений: 118,776
Сказал(а) спасибо: 29,094
Поблагодарили 131,393 раз(а) в 49,420 сообщениях
Дмитрий репутация неоспоримаДмитрий репутация неоспоримаДмитрий репутация неоспоримаДмитрий репутация неоспоримаДмитрий репутация неоспоримаДмитрий репутация неоспоримаДмитрий репутация неоспоримаДмитрий репутация неоспоримаДмитрий репутация неоспоримаДмитрий репутация неоспоримаДмитрий репутация неоспорима
Отправить сообщение для Дмитрий с помощью Skype™
По умолчанию

Добавил mp3
__________________
Кто желает поддержать форум (ВТО vsetutonline.com) напишите мне в личку!
Cпасибо Вам большое!
Дмитрий вне форума   Ответить с цитированием
Пользователь сказал cпасибо:
Александр9841 (29.11.2018)
Старый 29.11.2018, 18:17   #6
Александр9841
Местный
 

Регистрация: 07.02.2011
Сообщений: 167
Сказал(а) спасибо: 196
Поблагодарили 163 раз(а) в 75 сообщениях
Александр9841 - просто великолепная личностьАлександр9841 - просто великолепная личностьАлександр9841 - просто великолепная личностьАлександр9841 - просто великолепная личностьАлександр9841 - просто великолепная личностьАлександр9841 - просто великолепная личностьАлександр9841 - просто великолепная личность
По умолчанию

Большое спасибо за релиз!
Александр9841 вне форума   Ответить с цитированием
Ответ

Закладки

Опции темы
Опции просмотра

Ваши права в разделе
Вы не можете создавать новые темы
Вы не можете отвечать в темах
Вы не можете прикреплять вложения
Вы не можете редактировать свои сообщения

BB коды Вкл.
Смайлы Вкл.
[IMG] код Вкл.
HTML код Выкл.

Быстрый переход


Часовой пояс GMT, время: 14:22.


Powered by vBulletin® Version 3.8.2
Copyright ©2000 - 2019, Jelsoft Enterprises Ltd. Перевод: zCarot
Rambler's Top100 Республика Татарстан - Каталог сайтов