Все Тут Online
Все Тут Online
Новые сообщения
Все сообщения за последних 24 часа
Расширенный Поиск

   
Меню сайта:
Главная
Форум
Чат
- Online приложения:
- Игры
- Выбор стиля:
- FAQ
- Для начинающих

Вернуться   Все Тут Online > МАГНИТИЗДАТ (Оцифровки Кассет и Бобин) (lossless) > В гостях у Бориса 63 (Оцифровки с бобин и с кассет) > Поп Музыка (Lossless)

Ответ
 
Опции темы Опции просмотра
Старый 03.12.2018, 15:53   #11
Дмитрий
Music Group
 
Аватар для Дмитрий
 

Регистрация: 12.12.2008
Адрес: Москва прошлого тысячелетия.
Сообщений: 114,861
Сказал(а) спасибо: 28,007
Поблагодарили 125,182 раз(а) в 47,639 сообщениях
Дмитрий репутация неоспоримаДмитрий репутация неоспоримаДмитрий репутация неоспоримаДмитрий репутация неоспоримаДмитрий репутация неоспоримаДмитрий репутация неоспоримаДмитрий репутация неоспоримаДмитрий репутация неоспоримаДмитрий репутация неоспоримаДмитрий репутация неоспоримаДмитрий репутация неоспорима
Отправить сообщение для Дмитрий с помощью Skype™
По умолчанию

http://vsetutonline.com/forum/showthread.php?t=84968
Мираж - Дискография 19 CD альбомов - 1987-2006 [lossless]
__________________












Ccылка на тему: Как скачивать с Яндекс диска!

Чтобы быстро скачать чужой опубликованный файл, сохраните его на свой Диск. На вашем Диске файл окажется мгновенно, а свои файлы вы всегда можете скачать без ограничений. Для этого нужно пройти регистрацию на https://mail.yandex.ru/

Уж лучше голодать, чем что попало есть... И лучше одному, чем вместе с кем попало.

Не работают ссылки, не надо флудить в теме. Сообщите ЗДЕСЬ!




Скачал и не оставил комментарий - понизил релизёру мотивацию делиться с окружающими!

Команда Все Тут желает Вам приятного прослушивания!







Дмитрий вне форума   Ответить с цитированием
Пользователь сказал cпасибо:
pchu (03.12.2018)
Старый 03.12.2018, 16:21   #12
Алексей--95
Пользователь
 

Регистрация: 07.11.2015
Сообщений: 62
Сказал(а) спасибо: 95
Поблагодарили 249 раз(а) в 59 сообщениях
Алексей--95 за этого человека можно гордитсяАлексей--95 за этого человека можно гордитсяАлексей--95 за этого человека можно гордитсяАлексей--95 за этого человека можно гордитсяАлексей--95 за этого человека можно гордитсяАлексей--95 за этого человека можно гордитсяАлексей--95 за этого человека можно гордитсяАлексей--95 за этого человека можно гордитсяАлексей--95 за этого человека можно гордится
По умолчанию

CUE
Код:
REM GENRE Pop
REM DATE 1987
REM COMMENT "Оцифровка - Борис 63"
PERFORMER "гр. Мираж"
TITLE "Звезды нас ждут"
FILE "Мираж.flac" WAVE
  TRACK 01 AUDIO
    TITLE "Солнечное лето"
    INDEX 01 00:03:00
  TRACK 02 AUDIO
    TITLE "Звёзды нас ждут"
    INDEX 01 04:47:36
  TRACK 03 AUDIO
    TITLE "Безумный мир"
    INDEX 01 10:41:63
  TRACK 04 AUDIO
    TITLE "Видео"
    INDEX 01 14:29:12
  TRACK 05 AUDIO
    TITLE "Электричество"
    INDEX 01 18:52:18
  TRACK 06 AUDIO
    TITLE "Около полуночи (Сон) (инстр.)"
    INDEX 01 23:15:26
  TRACK 07 AUDIO
    TITLE "Эта ночь"
    INDEX 01 28:26:65
  TRACK 08 AUDIO
    TITLE "Волшебный мир"
    INDEX 01 32:57:35
  TRACK 09 AUDIO
    TITLE "Я не хочу"
    INDEX 01 39:13:07
  TRACK 10 AUDIO
    TITLE "???"
    PERFORMER "???"
    INDEX 01 42:22:65

Последний раз редактировалось Алексей--95; 03.12.2018 в 16:25.
Алексей--95 вне форума   Ответить с цитированием
5 пользователя(ей) сказали cпасибо:
ГеннадийС161 (03.12.2018), Борис 63 (04.12.2018), belomor30 (05.12.2018), cthutq_1956 (04.12.2018), Саша (beloborod) (03.12.2018)
Старый 04.12.2018, 06:22   #13
belomor30
VIP
 
Аватар для belomor30
 

Регистрация: 28.10.2015
Адрес: Город Пермь
Сообщений: 514
Сказал(а) спасибо: 676
Поблагодарили 801 раз(а) в 340 сообщениях
belomor30 репутация неоспоримаbelomor30 репутация неоспоримаbelomor30 репутация неоспоримаbelomor30 репутация неоспоримаbelomor30 репутация неоспоримаbelomor30 репутация неоспоримаbelomor30 репутация неоспоримаbelomor30 репутация неоспоримаbelomor30 репутация неоспоримаbelomor30 репутация неоспоримаbelomor30 репутация неоспорима
По умолчанию

Заинтриговали даже - с СиДи или нет... Вечером обязательно скачаю и посравниваю. Там ведь не только в порядке песен различия - сведением треков различаются.
belomor30 вне форума   Ответить с цитированием
Пользователь сказал cпасибо:
cthutq_1956 (04.12.2018)
Старый 04.12.2018, 17:56   #14
belomor30
VIP
 
Аватар для belomor30
 

Регистрация: 28.10.2015
Адрес: Город Пермь
Сообщений: 514
Сказал(а) спасибо: 676
Поблагодарили 801 раз(а) в 340 сообщениях
belomor30 репутация неоспоримаbelomor30 репутация неоспоримаbelomor30 репутация неоспоримаbelomor30 репутация неоспоримаbelomor30 репутация неоспоримаbelomor30 репутация неоспоримаbelomor30 репутация неоспоримаbelomor30 репутация неоспоримаbelomor30 репутация неоспоримаbelomor30 репутация неоспоримаbelomor30 репутация неоспорима
По умолчанию

Моё мнение - это магнитоальбомная версия, но с переколбашеным треклистом.
belomor30 вне форума   Ответить с цитированием
Пользователь сказал cпасибо:
ДенисПоПов27 (08.12.2018)
Ответ

Закладки

Опции темы
Опции просмотра

Ваши права в разделе
Вы не можете создавать новые темы
Вы не можете отвечать в темах
Вы не можете прикреплять вложения
Вы не можете редактировать свои сообщения

BB коды Вкл.
Смайлы Вкл.
[IMG] код Вкл.
HTML код Выкл.

Быстрый переход


Часовой пояс GMT, время: 11:18.


Powered by vBulletin® Version 3.8.2
Copyright ©2000 - 2019, Jelsoft Enterprises Ltd. Перевод: zCarot
Rambler's Top100 Республика Татарстан - Каталог сайтов