Все Тут Online
Все Тут Online
Новые сообщения
Все сообщения за последних 24 часа
Расширенный Поиск

   
Меню сайта:
Главная
Форум
Чат
- Online приложения:
- Игры
- Выбор стиля:
- FAQ
- Для начинающих

Вернуться   Все Тут Online > МАГНИТИЗДАТ (Оцифровки Кассет и Бобин) (lossless) > В гостях у Бориса 63 (Оцифровки с бобин и с кассет) > Поп Музыка (Lossless)

Старый 23.03.2018, 12:21   #1
Борис 63
Модератор раздела оцифровок
 
Аватар для Борис 63
 

Регистрация: 01.02.2010
Адрес: СССР Москва
Сообщений: 14,153
Сказал(а) спасибо: 8,157
Поблагодарили 47,702 раз(а) в 7,598 сообщениях
Борис 63 репутация неоспоримаБорис 63 репутация неоспоримаБорис 63 репутация неоспоримаБорис 63 репутация неоспоримаБорис 63 репутация неоспоримаБорис 63 репутация неоспоримаБорис 63 репутация неоспоримаБорис 63 репутация неоспоримаБорис 63 репутация неоспоримаБорис 63 репутация неоспоримаБорис 63 репутация неоспорима
По умолчанию (24/96) С.С.Э. 1988 Май - Где-то это лето; Сархан Сархан 1988; Аникиенко Виктор 1988 (lossless)







Оцифровка с катушки купленной для форума Александром (Вит70)
Спасибо ему.

Треклист:

01 Рыбкин Александр - Где-то это лето
02 Пламя - Поезд в листопад
03 Фоминс Родриго - Крылья
04 Самошин Владимир - Междугородный телефон
05 Лазарева Светлана - Бессонница
06 Боярский Михаил - Зеленоглазое такси
07 Пламя - Видеоклуб
08 Гурченко Людмила - Джокки
09 Пламя - Причал
10 Караченцов Николай - Маятник
11 Грибулина Ирина - Пингвин
12 Нурмухамедова Наталья - Архимед
13 Подгородецкий Петр - Прощальный поцелуй
14 - Театр

15 Сархан Сархан - Влюбиться
16 Сархан Сархан - Сон
17 Сархан Сархан - Жить привыкаю без тебя
18 Сархан Сархан - Играю черными
19 Сархан Сархан - Где ты
20 Сархан Сархан - Проходные дворы
21 Сархан Сархан - Марь Ивановна

22 Аникиенко Виктор - Доктор Ночь
23 Аникиенко Виктор - Пять белых тюльпанов
24 Аникиенко Виктор - Птичий рынок
25 Аникиенко Виктор - Сколько было всего
26 Аникиенко Виктор - Баскетбол
27 Аникиенко Виктор - Можжевеловый куст


Скрытый текст (вы должны зарегистрироваться или войти под своим логином):
У вас нет прав чтобы видеть скрытый текст, содержащейся здесь.


mp3
Скрытый текст (вы должны зарегистрироваться или войти под своим логином):
У вас нет прав чтобы видеть скрытый текст, содержащейся здесь.
__________________
Ccылка на тему: Как скачивать с Яндекс диска!

Чтобы быстро скачать чужой опубликованный файл, сохраните его на свой Диск. На вашем Диске файл окажется мгновенно, а свои файлы вы всегда можете скачать без ограничений.

Последний раз редактировалось Борис 63; 23.03.2018 в 13:10.
Борис 63 вне форума   Ответить с цитированием
9 пользователя(ей) сказали cпасибо:
Александр9841 (29.11.2018), Вит70 (23.03.2018), Дмитрий (23.03.2018), bergedorf (25.03.2018), Boor (28.11.2018), Саша (beloborod) (23.03.2018), suede69 (24.03.2018), victor1953 (02.01.2019), Yury_T (27.03.2018)
Старый 23.03.2018, 19:53   #2
Вит70
Команда
 

Регистрация: 09.06.2011
Сообщений: 1,526
Сказал(а) спасибо: 3,707
Поблагодарили 2,798 раз(а) в 996 сообщениях
Вит70 репутация неоспоримаВит70 репутация неоспоримаВит70 репутация неоспоримаВит70 репутация неоспоримаВит70 репутация неоспоримаВит70 репутация неоспоримаВит70 репутация неоспоримаВит70 репутация неоспоримаВит70 репутация неоспоримаВит70 репутация неоспоримаВит70 репутация неоспорима
По умолчанию

Борис 63, большое спасибо!!!!

Сторона 1

С.С.Э. 1988 Май - Где-то это лето

01.Рыбкин Александр - Где-то это лето
02.Пламя - Поезд в листопад
03.Фоминс Родриго - Крылья
04.Самошин Владимир – Междугородний телефон
05.Лазарева Светлана - Бессонница
06.Боярский Михаил - Зеленоглазое такси
07.Пламя - Видеоклуб
08.Гурченко Людмила - Джокки
09.Пламя - Причал
10.Караченцов Николай - Маятник
11.Грибулина Ирина - Пингвин
12.Нурмухамедова Наталья - Архимед
13.Подгородецкий Петр - Прощальный поцелуй
14.? - Театр

Сторона 2

Сархан Сархан 1988

01.Влюбиться
02.Сон
03.Жить привыкаю без тебя
04.Играю черными
05.Где ты
06.Проходные дворы
07.Марь Ивановна

Аникиенко Виктор 1988

08.Аникиенко Виктор - Доктор Ночь
09.Аникиенко Виктор - Пять белых тюльпанов
10.Аникиенко Виктор - Птичий рынок
11.Аникиенко Виктор - Сколько было всего
12.Аникиенко Виктор - Баскетбол
13.Аникиенко Виктор - Можжевеловый куст

Последний раз редактировалось Вит70; 23.03.2018 в 19:56.
Вит70 вне форума   Ответить с цитированием
6 пользователя(ей) сказали cпасибо:
Дмитрий (23.03.2018), Борис 63 (23.03.2018), bergedorf (25.03.2018), Саша (beloborod) (23.03.2018), orientir (24.03.2018), suede69 (24.03.2018)
Старый 23.03.2018, 20:08   #3
Дмитрий
Music Group
 
Аватар для Дмитрий
 

Регистрация: 12.12.2008
Адрес: Москва прошлого тысячелетия.
Сообщений: 119,059
Сказал(а) спасибо: 29,126
Поблагодарили 131,787 раз(а) в 49,502 сообщениях
Дмитрий репутация неоспоримаДмитрий репутация неоспоримаДмитрий репутация неоспоримаДмитрий репутация неоспоримаДмитрий репутация неоспоримаДмитрий репутация неоспоримаДмитрий репутация неоспоримаДмитрий репутация неоспоримаДмитрий репутация неоспоримаДмитрий репутация неоспоримаДмитрий репутация неоспорима
По умолчанию

CUE: https://yadi.sk/d/1L7SL2E73ThLHu

Код:
REM GENRE "Поп"
REM DATE 1988
REM COMMENT "Оцифровка - Борис 63"
TITLE "Магнитоальбом"
PERFORMER "С.С.Э. 1988 Май - 'Где-то это лето'"
FILE "1 ст.flac" WAVE
  TRACK 01 AUDIO
TITLE "Где-то это лето"
PERFORMER "Рыбкин Александр"
    INDEX 01 00:07:03
  TRACK 02 AUDIO
TITLE "Поезд в листопад"
PERFORMER "Пламя"
    INDEX 01 02:25:07
  TRACK 03 AUDIO
TITLE "Крылья"
PERFORMER "Фоминс Родриго"
    INDEX 01 06:42:64
  TRACK 04 AUDIO
TITLE "Междугородный телефон"
PERFORMER "Самошин Владимир"
    INDEX 01 11:27:60
  TRACK 05 AUDIO
TITLE "Бессонница"
PERFORMER "Лазарева Светлана"
    INDEX 01 14:02:62
  TRACK 06 AUDIO
TITLE "Зеленоглазое такси"
PERFORMER "Боярский Михаил"
    INDEX 01 16:44:32
  TRACK 07 AUDIO
TITLE "Видеоклуб"
PERFORMER "Пламя"
    INDEX 01 21:50:57
  TRACK 08 AUDIO
TITLE "Джокки"
PERFORMER "Гурченко Людмила"
    INDEX 01 25:01:67
  TRACK 09 AUDIO
TITLE "Причал"
PERFORMER "Пламя"
    INDEX 01 27:41:39
  TRACK 10 AUDIO
TITLE "Маятник"
PERFORMER "Караченцов Николай"
    INDEX 01 30:23:71
  TRACK 11 AUDIO
TITLE "Пингвин"
PERFORMER "Грибулина Ирина"
    INDEX 01 33:41:57
  TRACK 12 AUDIO
TITLE "Архимед"
PERFORMER "Нурмухамедова Наталья"
    INDEX 01 36:34:07
  TRACK 13 AUDIO
TITLE "Прощальный поцелуй"
PERFORMER "Подгородецкий Петр"
    INDEX 01 39:57:67
  TRACK 14 AUDIO
TITLE "Театр"
PERFORMER ""
    INDEX 01 42:00:44
FILE "2 ст.flac" WAVE
  TRACK 15 AUDIO
TITLE "Влюбиться"
PERFORMER "Сархан Сархан"
    INDEX 01 00:06:23
  TRACK 16 AUDIO
TITLE "Сон"
PERFORMER "Сархан Сархан"
    INDEX 01 03:43:45
  TRACK 17 AUDIO
TITLE "Жить привыкаю без тебя"
PERFORMER "Сархан Сархан"
    INDEX 01 07:09:39
  TRACK 18 AUDIO
TITLE "Играю черными"
PERFORMER "Сархан Сархан"
    INDEX 01 11:30:24
  TRACK 19 AUDIO
TITLE "Где ты"
PERFORMER "Сархан Сархан"
    INDEX 01 15:02:10
  TRACK 20 AUDIO
TITLE "Проходные дворы"
PERFORMER "Сархан Сархан"
    INDEX 01 17:58:50
  TRACK 21 AUDIO
TITLE "Марь Ивановна"
PERFORMER "Сархан Сархан"
    INDEX 01 22:01:70
  TRACK 22 AUDIO
TITLE "Доктор Ночь"
PERFORMER "Аникиенко Виктор"
    INDEX 01 25:16:02
  TRACK 23 AUDIO
TITLE "Пять белых тюльпанов"
PERFORMER "Аникиенко Виктор"
    INDEX 01 29:18:39
  TRACK 24 AUDIO
TITLE "Птичий рынок"
PERFORMER "Аникиенко Виктор"
    INDEX 01 33:05:55
  TRACK 25 AUDIO
TITLE "Сколько было всего"
PERFORMER "Аникиенко Виктор"
    INDEX 01 36:12:12
  TRACK 26 AUDIO
TITLE "Баскетбол"
PERFORMER "Аникиенко Виктор"
    INDEX 01 38:56:69
  TRACK 27 AUDIO
TITLE "Можжевеловый куст"
PERFORMER "Аникиенко Виктор"
    INDEX 01 41:40:66
__________________
-
Дмитрий вне форума   Ответить с цитированием
3 пользователя(ей) сказали cпасибо:
Вит70 (24.03.2018), bergedorf (25.03.2018), suede69 (24.03.2018)
Старый 23.03.2018, 20:35   #4
Дмитрий
Music Group
 
Аватар для Дмитрий
 

Регистрация: 12.12.2008
Адрес: Москва прошлого тысячелетия.
Сообщений: 119,059
Сказал(а) спасибо: 29,126
Поблагодарили 131,787 раз(а) в 49,502 сообщениях
Дмитрий репутация неоспоримаДмитрий репутация неоспоримаДмитрий репутация неоспоримаДмитрий репутация неоспоримаДмитрий репутация неоспоримаДмитрий репутация неоспоримаДмитрий репутация неоспоримаДмитрий репутация неоспоримаДмитрий репутация неоспоримаДмитрий репутация неоспоримаДмитрий репутация неоспорима
По умолчанию

Сархан Сархан - бывший солист ВИА "Красные маки"
Виктор Аникиенко - экс-солист ВИА "Пламя"
__________________
-
Дмитрий вне форума   Ответить с цитированием
4 пользователя(ей) сказали cпасибо:
ДенисПоПов27 (26.03.2018), bergedorf (25.03.2018), Саша (beloborod) (23.03.2018), suede69 (24.03.2018)
Старый 28.11.2018, 19:09   #5
Дмитрий
Music Group
 
Аватар для Дмитрий
 

Регистрация: 12.12.2008
Адрес: Москва прошлого тысячелетия.
Сообщений: 119,059
Сказал(а) спасибо: 29,126
Поблагодарили 131,787 раз(а) в 49,502 сообщениях
Дмитрий репутация неоспоримаДмитрий репутация неоспоримаДмитрий репутация неоспоримаДмитрий репутация неоспоримаДмитрий репутация неоспоримаДмитрий репутация неоспоримаДмитрий репутация неоспоримаДмитрий репутация неоспоримаДмитрий репутация неоспоримаДмитрий репутация неоспоримаДмитрий репутация неоспорима
По умолчанию

Добавил mp3
__________________
-
Дмитрий вне форума   Ответить с цитированием
Пользователь сказал cпасибо:
Александр9841 (29.11.2018)
Старый 29.11.2018, 18:14   #6
Александр9841
Местный
 

Регистрация: 07.02.2011
Сообщений: 167
Сказал(а) спасибо: 198
Поблагодарили 163 раз(а) в 75 сообщениях
Александр9841 - просто великолепная личностьАлександр9841 - просто великолепная личностьАлександр9841 - просто великолепная личностьАлександр9841 - просто великолепная личностьАлександр9841 - просто великолепная личностьАлександр9841 - просто великолепная личностьАлександр9841 - просто великолепная личность
По умолчанию

Огромное спасибо!
Александр9841 вне форума   Ответить с цитированием
Старый 09.12.2018, 09:26   #7
ssst
Новичок
 

Регистрация: 04.02.2018
Сообщений: 4
Сказал(а) спасибо: 1
Поблагодарили 4 раз(а) в 2 сообщениях
ssst на пути к лучшему
По умолчанию

Цитата:
Сообщение от Вит70 Посмотреть сообщение
Борис 63, большое спасибо!!!!

Сторона 1

С.С.Э. 1988 Май - Где-то это лето

01.Рыбкин Александр - Где-то это лето
02.Пламя - Поезд в листопад
03.Фоминс Родриго - Крылья
04.Самошин Владимир – Междугородний телефон
05.Лазарева Светлана - Бессонница
06.Боярский Михаил - Зеленоглазое такси
07.Пламя - Видеоклуб
08.Гурченко Людмила - Джокки
09.Пламя - Причал
10.Караченцов Николай - Маятник
11.Грибулина Ирина - Пингвин
12.Нурмухамедова Наталья - Архимед
13.Подгородецкий Петр - Прощальный поцелуй
14.? - Театр
14. Театр - О. ДОБРОЛЮБОВА, с альбома 1988 года
ssst вне форума   Ответить с цитированием
Ответ

Закладки

Опции темы
Опции просмотра

Ваши права в разделе
Вы не можете создавать новые темы
Вы не можете отвечать в темах
Вы не можете прикреплять вложения
Вы не можете редактировать свои сообщения

BB коды Вкл.
Смайлы Вкл.
[IMG] код Вкл.
HTML код Выкл.

Быстрый переход


Часовой пояс GMT, время: 23:30.


Powered by vBulletin® Version 3.8.2
Copyright ©2000 - 2019, Jelsoft Enterprises Ltd. Перевод: zCarot
Rambler's Top100 Республика Татарстан - Каталог сайтов