Все Тут Online
Все Тут Online
Новые сообщения
Все сообщения за последних 24 часа
Расширенный Поиск

   
Меню сайта:
Главная
Форум
Чат
- Online приложения:
- Игры
- Выбор стиля:
- FAQ
- Для начинающих

Вернуться   Все Тут Online > МАГНИТИЗДАТ (Оцифровки Кассет и Бобин) (lossless) > В гостях у Бориса 63 (Оцифровки с бобин и с кассет) > Поп Музыка (Lossless)

Ответ
 
Опции темы Опции просмотра
Старый 22.12.2018, 12:04   #51
цыган
Местный
 

Регистрация: 21.01.2011
Сообщений: 358
Сказал(а) спасибо: 13
Поблагодарили 623 раз(а) в 187 сообщениях
цыган репутация неоспоримацыган репутация неоспоримацыган репутация неоспоримацыган репутация неоспоримацыган репутация неоспоримацыган репутация неоспоримацыган репутация неоспоримацыган репутация неоспоримацыган репутация неоспоримацыган репутация неоспоримацыган репутация неоспорима
По умолчанию

Спасибо большое всем за проделанную работу!

Я видел в теме трек лист, но рискну предложить свой вариант того, что услышал:

01 Вступление фирмы «Матрис»
02 Вступление + Кошка
03 Интро + Почти жестокий романс
04 Интро + Ночь
05 Заставка фирмы «Матрис»
06 Интро + Мама йо керо
07 Интро + Банановый край
08 Интро + Дикий пляж
09 Интро + Дай денег
10 Реклама фирмы «Матрис»
11 Перелётные мухи
12 Попурри (Megamix)
цыган вне форума   Ответить с цитированием
2 пользователя(ей) сказали cпасибо:
Дмитрий (22.12.2018), Борис 63 (22.12.2018)
Старый 23.12.2018, 08:49   #52
belomor30
VIP
 
Аватар для belomor30
 

Регистрация: 28.10.2015
Адрес: Город Пермь
Сообщений: 514
Сказал(а) спасибо: 676
Поблагодарили 801 раз(а) в 340 сообщениях
belomor30 репутация неоспоримаbelomor30 репутация неоспоримаbelomor30 репутация неоспоримаbelomor30 репутация неоспоримаbelomor30 репутация неоспоримаbelomor30 репутация неоспоримаbelomor30 репутация неоспоримаbelomor30 репутация неоспоримаbelomor30 репутация неоспоримаbelomor30 репутация неоспоримаbelomor30 репутация неоспорима
По умолчанию

Присоединяюсь к поздравлениям по поводу пополнения парка катушечных агрегатов. Даже глядя на фото - в груди пульсации появляются. Боюсь представить какой восторг в душе может вызвать лицезрение этого всего в живую...

ЧуЙствуется по звуку, что аппарат вытащил всю максимально возможную информацию из магнитного слоя.

Думал-дамал, репу морщил, как с куем поступить и нарисовал аж два штука: в одном выделили в отдельные треки все интро (куй с пометкой "+" интро), а в другом просто на треки без выделения отдельно всякого базара (соответственно пометка "-" интро).
Кому как понравится.

CUE-SHEET 1: Лёня Агранович (p)1993 Леопольд и кошки (+ интро)

CUE-SHEET 2: Лёня Агранович (p)1993 Леопольд и кошки (- интро)

П.С. Не соглашусь с заявлением Дмитрия, что это оголтелый балалаечный попс.
Вполне достойный представитель поп-музыки с элементами шансона, с заявкой на оригинальность. У меня, по крайней мере он не вызвал резкого отторжения. Периодически проскакивает в оцифровках гораздо более рвотное музло....

belomor30 вне форума   Ответить с цитированием
Старый 23.12.2018, 08:51   #53
belomor30
VIP
 
Аватар для belomor30
 

Регистрация: 28.10.2015
Адрес: Город Пермь
Сообщений: 514
Сказал(а) спасибо: 676
Поблагодарили 801 раз(а) в 340 сообщениях
belomor30 репутация неоспоримаbelomor30 репутация неоспоримаbelomor30 репутация неоспоримаbelomor30 репутация неоспоримаbelomor30 репутация неоспоримаbelomor30 репутация неоспоримаbelomor30 репутация неоспоримаbelomor30 репутация неоспоримаbelomor30 репутация неоспоримаbelomor30 репутация неоспоримаbelomor30 репутация неоспорима
По умолчанию

+ интро
Код:
REM GENRE POP / CHANSON
REM DATE 1993
REM COMMENT "Reel-to-Reel Deck 'TEAC X-1000R' => 'Zoom h4n'"
REM COMMENT "Specially for http://vsetutonline.com"
REM COMMENT "Запись из коллекции - Александр (Вит70)"   
REM COMMENT "Оцифровка - Борис 63"
PERFORMER "Лёня Агранович"
TITLE "Леопольд и кошки"
FILE "Аграноыич.flac" WAVE
  TRACK 01 AUDIO
    TITLE "Реклама фирмы ''Магрис''"
    INDEX 01 00:00:00
  TRACK 02 AUDIO
    TITLE "Интро"
    INDEX 01 00:13:56
  TRACK 03 AUDIO
    TITLE "Кошка"
    INDEX 01 01:15:40
  TRACK 04 AUDIO
    TITLE "Интро"
    INDEX 01 06:43:19
  TRACK 05 AUDIO
    TITLE "Почти жестокий романс"
    INDEX 01 06:58:30
  TRACK 06 AUDIO
    TITLE "Интро"
    INDEX 01 11:25:46
  TRACK 07 AUDIO
    TITLE "Ночь"
    INDEX 01 11:44:70
  TRACK 08 AUDIO
    TITLE "Реклама фирмы ''Магрис''"
    INDEX 01 16:17:15
  TRACK 09 AUDIO
    TITLE "Интро"
    INDEX 01 16:26:47
  TRACK 10 AUDIO
    TITLE "Мама йо керо"
    INDEX 01 16:30:05
  TRACK 11 AUDIO
    TITLE "Интро"
    INDEX 01 21:12:36
  TRACK 12 AUDIO
    TITLE "Банановый край"
    INDEX 01 21:19:41
  TRACK 13 AUDIO
    TITLE "Интро"
    INDEX 01 25:28:47
  TRACK 14 AUDIO
    TITLE "Дикий пляж"
    INDEX 01 25:36:37
  TRACK 15 AUDIO
    TITLE "Интро"
    INDEX 01 29:32:44
  TRACK 16 AUDIO
    TITLE "Дай денег"
    INDEX 01 29:50:31
  TRACK 17 AUDIO
    TITLE "Реклама фирмы ''Магрис''"
    INDEX 01 33:47:05
  TRACK 18 AUDIO
    TITLE "Перелётные мухи"
    INDEX 01 34:24:54
  TRACK 19 AUDIO
    TITLE "Megamix"
    INDEX 01 38:45:00
- интро
Код:
REM GENRE POP / CHANSON
REM DATE 1993
REM COMMENT "Reel-to-Reel Deck 'TEAC X-1000R' => 'Zoom h4n'"
REM COMMENT "Specially for http://vsetutonline.com"
REM COMMENT "Запись из коллекции - Александр (Вит70)"   
REM COMMENT "Оцифровка - Борис 63"
PERFORMER "Лёня Агранович"
TITLE "Леопольд и кошки"
FILE "Аграноыич.flac" WAVE
  TRACK 01 AUDIO
    TITLE "Реклама фирмы ''Магрис''"
    INDEX 01 00:00:00
  TRACK 02 AUDIO
    TITLE "Интро"
    INDEX 01 00:13:56
  TRACK 03 AUDIO
    TITLE "Кошка"
    INDEX 01 01:15:40
  TRACK 04 AUDIO
    TITLE "Почти жестокий романс"
    INDEX 01 06:43:19
  TRACK 05 AUDIO
    TITLE "Ночь"
    INDEX 01 11:25:46
  TRACK 06 AUDIO
    TITLE "Реклама фирмы ''Магрис''"
    INDEX 01 16:17:15
  TRACK 07 AUDIO
    TITLE "Мама йо керо"
    INDEX 01 16:26:47
  TRACK 08 AUDIO
    TITLE "Банановый край"
    INDEX 01 21:12:36
  TRACK 09 AUDIO
    TITLE "Дикий пляж"
    INDEX 01 25:28:47
  TRACK 10 AUDIO
    TITLE "Дай денег"
    INDEX 01 29:32:44
  TRACK 11 AUDIO
    TITLE "Реклама фирмы ''Магрис''"
    INDEX 01 33:47:05
  TRACK 12 AUDIO
    TITLE "Перелётные мухи"
    INDEX 01 34:24:54
  TRACK 13 AUDIO
    TITLE "Megamix"
    INDEX 01 38:45:00
belomor30 вне форума   Ответить с цитированием
3 пользователя(ей) сказали cпасибо:
Вит70 (23.12.2018), Борис 63 (13.01.2019), cthutq_1956 (23.12.2018)
Ответ

Закладки

Опции темы
Опции просмотра

Ваши права в разделе
Вы не можете создавать новые темы
Вы не можете отвечать в темах
Вы не можете прикреплять вложения
Вы не можете редактировать свои сообщения

BB коды Вкл.
Смайлы Вкл.
[IMG] код Вкл.
HTML код Выкл.

Быстрый переход


Часовой пояс GMT, время: 11:02.


Powered by vBulletin® Version 3.8.2
Copyright ©2000 - 2019, Jelsoft Enterprises Ltd. Перевод: zCarot
Rambler's Top100 Республика Татарстан - Каталог сайтов