Все Тут Online
Все Тут Online
Новые сообщения
Все сообщения за последних 24 часа
Расширенный Поиск

   
Меню сайта:
Главная
Форум
Чат
- Online приложения:
- Игры
- Выбор стиля:
- FAQ
- Для начинающих

Вернуться   Все Тут Online > МАГНИТИЗДАТ (Оцифровки Кассет и Бобин) (lossless) > В гостях у Бориса 63 (Оцифровки с бобин и с кассет) > Поп Музыка (Lossless)

Старый 03.01.2019, 13:05   #1
Вит70
Команда
 

Регистрация: 09.06.2011
Сообщений: 1,526
Сказал(а) спасибо: 3,707
Поблагодарили 2,798 раз(а) в 996 сообщениях
Вит70 репутация неоспоримаВит70 репутация неоспоримаВит70 репутация неоспоримаВит70 репутация неоспоримаВит70 репутация неоспоримаВит70 репутация неоспоримаВит70 репутация неоспоримаВит70 репутация неоспоримаВит70 репутация неоспоримаВит70 репутация неоспоримаВит70 репутация неоспорима
По умолчанию (24/96) С.С.Э. - Не волнуйтесь тетя 1987 (lossless)

Оцифрока Борис 63 все благодарности ему!!!!



Сборник Советской Эстрады - Не волнуйтесь тетя 1987

Сторона 1

01 Весёлые ребята - Не волнуйтесь тётя
02 Ротару София – Было и прошло
03 Александр Абдулов - Рок-сорняк
04 Вайкуле Лайма – Ещё не вечер
05 Ялла – Маскарабоз
06 Чепрага Надежда – Загадайте
07 Пресняков Владимир – Чарли Чаплин
08 Ротару София – Приме варе (Весна)
09 Семенова Екатерина – Школьница
10 Макси-клуб - Мама, не грусти
11 Лабиринт (Мон Алиса) - Обещаю


Скрытый текст (вы должны зарегистрироваться или войти под своим логином):
У вас нет прав чтобы видеть скрытый текст, содержащейся здесь.


Сторона 2

01 Николаев Игорь – Катя Катерина
02 Медяник Светлана - Чертята
03 Маки - Без тебя (Так случилось)
04 Роксана Бабаян (+ Александр Ширвиндт и Михаил Державин) - Мужчины, женщины
05 Наргиз Закирова - К нам птицы белые летят
06 Толкунова Валентина - Не говори прощай
07 Телескоп - Понедельник
08 Форум - Материнская тревога
09 Гурченко Лидмила - Джокки
10 Телескоп - Трамвай
11 Макси-клуб - Луна
12 Вектор - Регата


Скрытый текст (вы должны зарегистрироваться или войти под своим логином):
У вас нет прав чтобы видеть скрытый текст, содержащейся здесь.

Последний раз редактировалось Вит70; 11.01.2019 в 06:10.
Вит70 вне форума   Ответить с цитированием
6 пользователя(ей) сказали cпасибо:
Борис 63 (03.01.2019), belomor30 (04.01.2019), Саша (beloborod) (04.01.2019), ochkolup66 (03.01.2019), pchu (03.01.2019), Yury_T (07.01.2019)
Старый 04.01.2019, 14:29   #2
belomor30
Команда
 
Аватар для belomor30
 

Регистрация: 28.10.2015
Адрес: Город Пермь
Сообщений: 796
Сказал(а) спасибо: 748
Поблагодарили 1,228 раз(а) в 522 сообщениях
belomor30 репутация неоспоримаbelomor30 репутация неоспоримаbelomor30 репутация неоспоримаbelomor30 репутация неоспоримаbelomor30 репутация неоспоримаbelomor30 репутация неоспоримаbelomor30 репутация неоспоримаbelomor30 репутация неоспоримаbelomor30 репутация неоспоримаbelomor30 репутация неоспоримаbelomor30 репутация неоспорима
По умолчанию

Качество фонограммы, я б сказал, на троечку. И скорость несколько замедленна. Но в любом и случае спасибо за фонограмму и оцифровку.
А куй в качестве новогоднего подарка:

С.С.Э. (p)1987 Не волнуйтесь тётя. Часть 1.cue

П.С. Вроде как должна быть вторая часть сборника. Будет?
belomor30 вне форума   Ответить с цитированием
3 пользователя(ей) сказали cпасибо:
Вит70 (04.01.2019), Саша (beloborod) (08.01.2019), Yury_T (07.01.2019)
Старый 04.01.2019, 14:30   #3
belomor30
Команда
 
Аватар для belomor30
 

Регистрация: 28.10.2015
Адрес: Город Пермь
Сообщений: 796
Сказал(а) спасибо: 748
Поблагодарили 1,228 раз(а) в 522 сообщениях
belomor30 репутация неоспоримаbelomor30 репутация неоспоримаbelomor30 репутация неоспоримаbelomor30 репутация неоспоримаbelomor30 репутация неоспоримаbelomor30 репутация неоспоримаbelomor30 репутация неоспоримаbelomor30 репутация неоспоримаbelomor30 репутация неоспоримаbelomor30 репутация неоспоримаbelomor30 репутация неоспорима
По умолчанию

Код:
REM GENRE Pop
REM DATE 1987
REM COMMENT "Reel-to-Reel Deck 'Technics RS-1506' => 'Zoom h4n'"
REM COMMENT "Specially for http://vsetutonline.com"
REM COMMENT "Запись из коллекции - Александр (Вит70)"   
REM COMMENT "Оцифровка - Борис 63"
PERFORMER "Various Artists"
TITLE "Не волнуйтесь, тётя. Часть 1"
FILE "1 часть.flac" WAVE
  TRACK 01 AUDIO
    TITLE "Не волнуйтесь, тётя"
    PERFORMER "Весёлые Ребята"
    INDEX 01 00:00:00
  TRACK 02 AUDIO
    TITLE "Было и прошло"
    PERFORMER "София Ротару"
    INDEX 01 04:46:00
  TRACK 03 AUDIO
    TITLE "Рок-сорняк"
    PERFORMER "Александр Абдулов"
    INDEX 01 09:57:00
  TRACK 04 AUDIO
    TITLE "Ещё не вечер"
    PERFORMER "Лайма Вайкуле"
    INDEX 01 12:47:00
  TRACK 05 AUDIO
    TITLE "Маскарабоз"
    PERFORMER "Ялла"
    INDEX 01 16:42:00
  TRACK 06 AUDIO
    TITLE "Загадайте"
    PERFORMER "Надежда Чепрага"
    INDEX 01 20:56:00
  TRACK 07 AUDIO
    TITLE "Чарли Чаплин"
    PERFORMER "Владимир Пресняков"
    INDEX 01 25:09:00
  TRACK 08 AUDIO
    TITLE "Примэвара ва вени (Музыка весны)"
    PERFORMER "София Ротару"
    INDEX 01 29:21:00
  TRACK 09 AUDIO
    TITLE "Школьница"
    PERFORMER "Катя Семёнова"
    INDEX 01 33:59:00
  TRACK 010 AUDIO
    TITLE "Мама, не грусти"
    PERFORMER "Макси-клуб"
    INDEX 01 39:22:00
  TRACK 11 AUDIO
    TITLE "Обещаю"
    PERFORMER "Лабиринт и Алиса Мон"
    INDEX 01 42:09:00
belomor30 вне форума   Ответить с цитированием
3 пользователя(ей) сказали cпасибо:
Вит70 (04.01.2019), Саша (beloborod) (08.01.2019), Yury_T (07.01.2019)
Старый 07.01.2019, 14:15   #4
Вит70
Команда
 

Регистрация: 09.06.2011
Сообщений: 1,526
Сказал(а) спасибо: 3,707
Поблагодарили 2,798 раз(а) в 996 сообщениях
Вит70 репутация неоспоримаВит70 репутация неоспоримаВит70 репутация неоспоримаВит70 репутация неоспоримаВит70 репутация неоспоримаВит70 репутация неоспоримаВит70 репутация неоспоримаВит70 репутация неоспоримаВит70 репутация неоспоримаВит70 репутация неоспоримаВит70 репутация неоспорима
По умолчанию

Добавил вторую сторону!!!!!
Вит70 вне форума   Ответить с цитированием
3 пользователя(ей) сказали cпасибо:
Борис 63 (07.01.2019), Саша (beloborod) (08.01.2019), Yury_T (07.01.2019)
Старый 08.01.2019, 18:09   #5
belomor30
Команда
 
Аватар для belomor30
 

Регистрация: 28.10.2015
Адрес: Город Пермь
Сообщений: 796
Сказал(а) спасибо: 748
Поблагодарили 1,228 раз(а) в 522 сообщениях
belomor30 репутация неоспоримаbelomor30 репутация неоспоримаbelomor30 репутация неоспоримаbelomor30 репутация неоспоримаbelomor30 репутация неоспоримаbelomor30 репутация неоспоримаbelomor30 репутация неоспоримаbelomor30 репутация неоспоримаbelomor30 репутация неоспоримаbelomor30 репутация неоспоримаbelomor30 репутация неоспорима
По умолчанию

Чуток подкорректировал трек лист:

01. Игорь Николаев (дуэт с Владимиром Матецким) - Катя, Катерина
02. Светлана Медяник - Чертята
03. "Маки" - Так случилось
04. Роксана Бабаян (+ Александр Ширвиндт и Михаил Державин) - Мужчины, женщины
05. Наргиза Закирова - К нам птицы белые летят
06. Валентина Толкунова - Не говори Прощай
07. "Телескоп" - Понедельник
08. "Форум" - Материнская тревога
09. Людмила Гурченко - Джокки
10. "Телескоп" - Трамвай
11. "Макси-клуб" - Луна
12. "Вектор" - Регата


CUE-SHEET:

С.С.Э. (p)1987 Не волнуйтесь тётя. Часть 2
belomor30 вне форума   Ответить с цитированием
2 пользователя(ей) сказали cпасибо:
Вит70 (11.01.2019), Борис 63 (09.01.2019)
Старый 08.01.2019, 18:10   #6
belomor30
Команда
 
Аватар для belomor30
 

Регистрация: 28.10.2015
Адрес: Город Пермь
Сообщений: 796
Сказал(а) спасибо: 748
Поблагодарили 1,228 раз(а) в 522 сообщениях
belomor30 репутация неоспоримаbelomor30 репутация неоспоримаbelomor30 репутация неоспоримаbelomor30 репутация неоспоримаbelomor30 репутация неоспоримаbelomor30 репутация неоспоримаbelomor30 репутация неоспоримаbelomor30 репутация неоспоримаbelomor30 репутация неоспоримаbelomor30 репутация неоспоримаbelomor30 репутация неоспорима
По умолчанию

Код:
REM GENRE Pop
REM DATE 1987
REM COMMENT "Reel-to-Reel Deck 'Technics RS-1506' => 'Zoom h4n'"
REM COMMENT "Specially for http://vsetutonline.com"
REM COMMENT "Запись из коллекции - Александр (Вит70)"   
REM COMMENT "Оцифровка - Борис 63"
PERFORMER "Various Artists"
TITLE "Не волнуйтесь, тётя. Часть 2"
FILE "2 часть.flac" WAVE
  TRACK 01 AUDIO
    TITLE "Катя, Катерина"
    PERFORMER "Игорь Николаев (дуэт с Владимиром Матецким)"
    INDEX 01 00:00:00
  TRACK 02 AUDIO
    TITLE "Чертята"
    PERFORMER "Светлана Медяник"
    INDEX 01 03:23:00
  TRACK 03 AUDIO
    TITLE "Так случилось"
    PERFORMER "Маки"
    INDEX 01 05:30:05
  TRACK 04 AUDIO
    TITLE "Мужчины, женщины"
    PERFORMER "Роксана Бабаян (+А.Ширвиндт и М.Державин)"
    INDEX 01 10:34:00
  TRACK 05 AUDIO
    TITLE "К нам птицы белые летят"
    PERFORMER "Наргиза Закирова"
    INDEX 01 14:32:00
  TRACK 06 AUDIO
    TITLE "Не говори Прощай"
    PERFORMER "Валентина Толкунова"
    INDEX 01 18:51:00
  TRACK 07 AUDIO
    TITLE "Понедельник"
    PERFORMER "Телескоп"
    INDEX 01 23:34:00
  TRACK 08 AUDIO
    TITLE "Материнская тревога"
    PERFORMER "Форум"
    INDEX 01 27:32:00
  TRACK 09 AUDIO
    TITLE "Джокки"
    PERFORMER "Людмила Гурченко"
    INDEX 01 32:41:00
  TRACK 010 AUDIO
    TITLE "Трамвай"
    PERFORMER "Телескоп"
    INDEX 01 36:05:00
  TRACK 11 AUDIO
    TITLE "Луна"
    PERFORMER "Макси-клуб"
    INDEX 01 39:59:00
  TRACK 12 AUDIO
    TITLE "Регата"
    PERFORMER "Вектор"
    INDEX 01 42:30:00
belomor30 вне форума   Ответить с цитированием
2 пользователя(ей) сказали cпасибо:
Вит70 (11.01.2019), Борис 63 (09.01.2019)
Ответ

Закладки

Опции темы
Опции просмотра

Ваши права в разделе
Вы не можете создавать новые темы
Вы не можете отвечать в темах
Вы не можете прикреплять вложения
Вы не можете редактировать свои сообщения

BB коды Вкл.
Смайлы Вкл.
[IMG] код Вкл.
HTML код Выкл.

Быстрый переход


Часовой пояс GMT, время: 23:30.


Powered by vBulletin® Version 3.8.2
Copyright ©2000 - 2019, Jelsoft Enterprises Ltd. Перевод: zCarot
Rambler's Top100 Республика Татарстан - Каталог сайтов