Все Тут Online
Все Тут Online
Новые сообщения
Все сообщения за последних 24 часа
Расширенный Поиск

   
Меню сайта:
Главная
Форум
Чат
- Online приложения:
- Игры
- Выбор стиля:
- FAQ
- Для начинающих

Вернуться   Все Тут Online > МАГНИТИЗДАТ (Оцифровки Кассет и Бобин) (lossless) > В гостях у Бориса 63 (Оцифровки с бобин и с кассет) > Поп Музыка (Lossless)

Старый 11.01.2019, 11:30   #1
Борис 63
Супермодератор. Смотрящий за форумом. Модератор разделов оцифровок.
 
Аватар для Борис 63
 

Регистрация: 01.02.2010
Адрес: СССР Москва
Сообщений: 13,917
Сказал(а) спасибо: 7,949
Поблагодарили 46,361 раз(а) в 7,419 сообщениях
Борис 63 репутация неоспоримаБорис 63 репутация неоспоримаБорис 63 репутация неоспоримаБорис 63 репутация неоспоримаБорис 63 репутация неоспоримаБорис 63 репутация неоспоримаБорис 63 репутация неоспоримаБорис 63 репутация неоспоримаБорис 63 репутация неоспоримаБорис 63 репутация неоспоримаБорис 63 репутация неоспорима
По умолчанию (24/96) Владимир Шурочкин 1990 "Машка-матрёшка"(lossless)



Оцифровка с катушки Александра (Вит70)
Спасибо ему.

Владимир Шурочкин - Коллаж (1990)

01 Коллаж
02 Осень
03 Машка-Матрешка
04 Вержиния
05 Уходит Лето
06 Тень
07 Замкнутый Круг
Дописка
08 Бамбино - Напиши мне письмо
09 Бамбино - Ночь придет
10 Бамбино - Дым от сигарет клубится над тобой
11 Бамбино - Нам тепло
12 Бамбино - Девочка моя милая


ссылка


Скрытый текст (вы должны зарегистрироваться или войти под своим логином):
У вас нет прав чтобы видеть скрытый текст, содержащейся здесь.
__________________
Ccылка на тему: Как скачивать с Яндекс диска!

Чтобы быстро скачать чужой опубликованный файл, сохраните его на свой Диск. На вашем Диске файл окажется мгновенно, а свои файлы вы всегда можете скачать без ограничений.

Последний раз редактировалось Борис 63; 11.01.2019 в 16:12.
Борис 63 вне форума   Ответить с цитированием
6 пользователя(ей) сказали cпасибо:
Вит70 (11.01.2019), BBB100-7 (13.01.2019), belomor30 (11.01.2019), Саша (beloborod) (12.01.2019), orientir (12.01.2019), Yury_T (12.01.2019)
Старый 11.01.2019, 13:04   #2
Вит70
Команда
 

Регистрация: 09.06.2011
Сообщений: 1,440
Сказал(а) спасибо: 3,559
Поблагодарили 2,584 раз(а) в 928 сообщениях
Вит70 репутация неоспоримаВит70 репутация неоспоримаВит70 репутация неоспоримаВит70 репутация неоспоримаВит70 репутация неоспоримаВит70 репутация неоспоримаВит70 репутация неоспоримаВит70 репутация неоспоримаВит70 репутация неоспоримаВит70 репутация неоспоримаВит70 репутация неоспорима
По умолчанию

Борис 63, большое спасибо!!!!

Владимир Шурочкин - Коллаж (1990)

01 Коллаж
02 Осень
03 Машка-Матрешка
04 Вержиния
05 Уходит Лето
06 Тень
07 Замкнутый Круг
Дописка
08 Бамбино - Напиши мне письмо
09 Бамбино - Ночь придет
10 Бамбино - Дым от сигарет клубится над тобой
11 Бамбино - Нам тепло
12 Бамбино - Девочка моя милая
Вит70 вне форума   Ответить с цитированием
3 пользователя(ей) сказали cпасибо:
Борис 63 (11.01.2019), BBB100-7 (13.01.2019), Саша (beloborod) (12.01.2019)
Старый 11.01.2019, 13:58   #3
belomor30
VIP
 
Аватар для belomor30
 

Регистрация: 28.10.2015
Адрес: Город Пермь
Сообщений: 514
Сказал(а) спасибо: 676
Поблагодарили 801 раз(а) в 340 сообщениях
belomor30 репутация неоспоримаbelomor30 репутация неоспоримаbelomor30 репутация неоспоримаbelomor30 репутация неоспоримаbelomor30 репутация неоспоримаbelomor30 репутация неоспоримаbelomor30 репутация неоспоримаbelomor30 репутация неоспоримаbelomor30 репутация неоспоримаbelomor30 репутация неоспоримаbelomor30 репутация неоспорима
По умолчанию

Владимир Шурочкин 1990 "Машка-матрёшка"

CUE-SHEET: Владимир Шурочкин (p)1990 Машка-матрёшка

П.С. Надпись в шапке темы "Ласковый Май-8" к этому альбому не относится. "Ласковый Май-8" - это предыдущий альбом исполнителя.
belomor30 вне форума   Ответить с цитированием
5 пользователя(ей) сказали cпасибо:
Вит70 (11.01.2019), Борис 63 (11.01.2019), BBB100-7 (13.01.2019), Крепыш (12.01.2019), Саша (beloborod) (12.01.2019)
Старый 11.01.2019, 13:59   #4
belomor30
VIP
 
Аватар для belomor30
 

Регистрация: 28.10.2015
Адрес: Город Пермь
Сообщений: 514
Сказал(а) спасибо: 676
Поблагодарили 801 раз(а) в 340 сообщениях
belomor30 репутация неоспоримаbelomor30 репутация неоспоримаbelomor30 репутация неоспоримаbelomor30 репутация неоспоримаbelomor30 репутация неоспоримаbelomor30 репутация неоспоримаbelomor30 репутация неоспоримаbelomor30 репутация неоспоримаbelomor30 репутация неоспоримаbelomor30 репутация неоспоримаbelomor30 репутация неоспорима
По умолчанию

Код:
REM GENRE Pop / Electro Pop
REM DATE 1990
REM COMMENT "Reel-to-Reel Deck 'AKAI GX-4000D' => 'Zoom h4n'"
REM COMMENT "Specially for http://vsetutonline.com"
REM COMMENT "Запись из коллекции - Александр (Вит70)"   
REM COMMENT "Оцифровка - Борис 63"
TITLE "Машка-матрёшка"
PERFORMER "Владимир Шурочкин"
FILE "Шурочкин.flac" WAVE
  TRACK 01 AUDIO
TITLE "Коллаж"
PERFORMER "Владимир Шурочкин"
    INDEX 01 00:00:00
  TRACK 02 AUDIO
TITLE "Осень"
PERFORMER "Владимир Шурочкин"
    INDEX 01 04:33:25
  TRACK 03 AUDIO
TITLE "Машка-матрёшка"
PERFORMER "Владимир Шурочкин"
    INDEX 01 09:25:50
  TRACK 04 AUDIO
TITLE "Вирджиния"
PERFORMER "Владимир Шурочкин"
    INDEX 01 14:24:00
  TRACK 05 AUDIO
TITLE "Уходит лето"
PERFORMER "Владимир Шурочкин"
    INDEX 01 17:45:00
  TRACK 06 AUDIO
TITLE "Рядом со мной"
PERFORMER "Владимир Шурочкин"
    INDEX 01 22:16:01
  TRACK 07 AUDIO
TITLE "Замкнутый круг"
PERFORMER "Владимир Шурочкин"
    INDEX 01 26:55:00
  TRACK 08 AUDIO
TITLE "Напиши мне письмо"
PERFORMER "Бамбино"
    INDEX 01 31:19:33
  TRACK 09 AUDIO
TITLE "Ночь придет"
PERFORMER "Бамбино"
    INDEX 01 34:40:60
  TRACK 10 AUDIO
TITLE "Дым от сигарет клубится над тобой"
PERFORMER "Бамбино"
    INDEX 01 40:21:00
  TRACK 11 AUDIO
TITLE "Нам тепло"
PERFORMER "Бамбино"
    INDEX 01 42:56:15
  TRACK 12 AUDIO
TITLE "Девочка моя милая"
PERFORMER "Бамбино"
    INDEX 01 45:51:31
belomor30 вне форума   Ответить с цитированием
4 пользователя(ей) сказали cпасибо:
Вит70 (11.01.2019), Борис 63 (11.01.2019), BBB100-7 (13.01.2019), Саша (beloborod) (12.01.2019)
Старый 11.01.2019, 16:20   #5
Борис 63
Супермодератор. Смотрящий за форумом. Модератор разделов оцифровок.
 
Аватар для Борис 63
 

Регистрация: 01.02.2010
Адрес: СССР Москва
Сообщений: 13,917
Сказал(а) спасибо: 7,949
Поблагодарили 46,361 раз(а) в 7,419 сообщениях
Борис 63 репутация неоспоримаБорис 63 репутация неоспоримаБорис 63 репутация неоспоримаБорис 63 репутация неоспоримаБорис 63 репутация неоспоримаБорис 63 репутация неоспоримаБорис 63 репутация неоспоримаБорис 63 репутация неоспоримаБорис 63 репутация неоспоримаБорис 63 репутация неоспоримаБорис 63 репутация неоспорима
По умолчанию

Цитата:
Сообщение от belomor30 Посмотреть сообщение
Надпись в шапке темы "Ласковый Май-8" к этому альбому не относится.
Поправил,Сэр!
__________________
Ccылка на тему: Как скачивать с Яндекс диска!

Чтобы быстро скачать чужой опубликованный файл, сохраните его на свой Диск. На вашем Диске файл окажется мгновенно, а свои файлы вы всегда можете скачать без ограничений.
Борис 63 вне форума   Ответить с цитированием
Пользователь сказал cпасибо:
BBB100-7 (13.01.2019)
Ответ

Закладки

Опции темы
Опции просмотра

Ваши права в разделе
Вы не можете создавать новые темы
Вы не можете отвечать в темах
Вы не можете прикреплять вложения
Вы не можете редактировать свои сообщения

BB коды Вкл.
Смайлы Вкл.
[IMG] код Вкл.
HTML код Выкл.

Быстрый переход


Часовой пояс GMT, время: 11:06.


Powered by vBulletin® Version 3.8.2
Copyright ©2000 - 2019, Jelsoft Enterprises Ltd. Перевод: zCarot
Rambler's Top100 Республика Татарстан - Каталог сайтов