Все Тут Online
Все Тут Online
Новые сообщения
Все сообщения за последних 24 часа
Расширенный Поиск

   
Меню сайта:
Главная
Форум
Чат
- Online приложения:
- Игры
- Выбор стиля:
- FAQ
- Для начинающих

Вернуться   Все Тут Online > МАГНИТИЗДАТ (Оцифровки Кассет и Бобин) (lossless) > В гостях у Бориса 63 (Оцифровки с бобин и с кассет) > Поп Музыка (Lossless)

Старый 11.01.2019, 09:40   #1
Борис 63
Модератор раздела оцифровок
 
Аватар для Борис 63
 

Регистрация: 01.02.2010
Адрес: СССР Москва
Сообщений: 14,153
Сказал(а) спасибо: 8,157
Поблагодарили 47,702 раз(а) в 7,598 сообщениях
Борис 63 репутация неоспоримаБорис 63 репутация неоспоримаБорис 63 репутация неоспоримаБорис 63 репутация неоспоримаБорис 63 репутация неоспоримаБорис 63 репутация неоспоримаБорис 63 репутация неоспоримаБорис 63 репутация неоспоримаБорис 63 репутация неоспоримаБорис 63 репутация неоспоримаБорис 63 репутация неоспорима
По умолчанию (24/96) Игорь Крестовский -На переходе- 1990 год (lossless)






Оцифровка с катушки Александра (Вит70)

Спасибо ему.


Игорь Крестовский - На Переходе (1990)

01 Интро
02 На Переходе
03 Кинозвезда
04 Танцуют Все
05 Я Забуду
06 Кто Бы Мог Подумать
07 На Верблюде
08 Танцуй Со Мной
09 Путник В Ночи
10 Желание
11 Интро
12 Тусовка
13 С.Медведев - Прощай (Начало)



ссылка

CUE-SHEET:

Игорь Крестовский (p)1990 "На Переходе"

Скрытый текст (вы должны зарегистрироваться или войти под своим логином):
У вас нет прав чтобы видеть скрытый текст, содержащейся здесь.
__________________
Ccылка на тему: Как скачивать с Яндекс диска!

Чтобы быстро скачать чужой опубликованный файл, сохраните его на свой Диск. На вашем Диске файл окажется мгновенно, а свои файлы вы всегда можете скачать без ограничений.

Последний раз редактировалось Борис 63; 11.01.2019 в 09:59.
Борис 63 вне форума   Ответить с цитированием
8 пользователя(ей) сказали cпасибо:
Бархан (11.01.2019), Владимир 1733 (05.02.2019), Вит70 (11.01.2019), belomor30 (11.01.2019), Саша (beloborod) (12.01.2019), orientir (12.01.2019), victor1953 (25.01.2019), Yury_T (12.01.2019)
Старый 11.01.2019, 09:56   #2
Вит70
Команда
 

Регистрация: 09.06.2011
Сообщений: 1,526
Сказал(а) спасибо: 3,707
Поблагодарили 2,798 раз(а) в 996 сообщениях
Вит70 репутация неоспоримаВит70 репутация неоспоримаВит70 репутация неоспоримаВит70 репутация неоспоримаВит70 репутация неоспоримаВит70 репутация неоспоримаВит70 репутация неоспоримаВит70 репутация неоспоримаВит70 репутация неоспоримаВит70 репутация неоспоримаВит70 репутация неоспорима
По умолчанию

Борис 63, большое спасибо!!!!

Игорь Крестовский - На Переходе (1990)

01 Интро
02 На Переходе
03 Кинозвезда
04 Танцуют Все
05 Я Забуду
06 Кто Бы Мог Подумать
07 На Верблюде
08 Танцуй Со Мной
09 Путник В Ночи
10 Желание
11 Интро
12 Тусовка
13 С.Медведев - Прощай (Начало)
Вит70 вне форума   Ответить с цитированием
2 пользователя(ей) сказали cпасибо:
Борис 63 (11.01.2019), Саша (beloborod) (12.01.2019)
Старый 11.01.2019, 17:58   #3
belomor30
Команда
 
Аватар для belomor30
 

Регистрация: 28.10.2015
Адрес: Город Пермь
Сообщений: 796
Сказал(а) спасибо: 748
Поблагодарили 1,228 раз(а) в 522 сообщениях
belomor30 репутация неоспоримаbelomor30 репутация неоспоримаbelomor30 репутация неоспоримаbelomor30 репутация неоспоримаbelomor30 репутация неоспоримаbelomor30 репутация неоспоримаbelomor30 репутация неоспоримаbelomor30 репутация неоспоримаbelomor30 репутация неоспоримаbelomor30 репутация неоспоримаbelomor30 репутация неоспорима
По умолчанию

CUE-SHEET:

Игорь Крестовский (p)1990 "На Переходе"

Код:
REM GENRE Pop / Electro Pop
REM DATE 1990
REM COMMENT "Reel-to-Reel Deck 'Technics RS-1506' => 'Zoom h4n'"
REM COMMENT "Specially for http://vsetutonline.com"
REM COMMENT "Запись из коллекции - Александр (Вит70)"   
REM COMMENT "Оцифровка - Борис 63"
TITLE "На Переходе"
PERFORMER "Игорь Крестовский"
FILE "Крестовский90.flac" WAVE
  TRACK 01 AUDIO
TITLE "Интро"
PERFORMER "Игорь Крестовский"
    INDEX 01 00:00:00
  TRACK 02 AUDIO
TITLE "На переходе"
PERFORMER "Игорь Крестовский"
    INDEX 01 00:34:15
  TRACK 03 AUDIO
TITLE "Кинозвезда"
PERFORMER "Игорь Крестовский"
    INDEX 01 05:23:40
  TRACK 04 AUDIO
TITLE "Танцуют все"
PERFORMER "Игорь Крестовский"
    INDEX 01 09:36:00
  TRACK 05 AUDIO
TITLE "Я забуду"
PERFORMER "Игорь Крестовский"
    INDEX 01 13:29:00
  TRACK 06 AUDIO
TITLE "Кто бы мог подумать"
PERFORMER "Игорь Крестовский"
    INDEX 01 17:52:01
  TRACK 07 AUDIO
TITLE "На верблюде"
PERFORMER "Игорь Крестовский"
    INDEX 01 22:29:00
  TRACK 08 AUDIO
TITLE "Танцуй со мной"
PERFORMER "Игорь Крестовский"
    INDEX 01 26:11:00
  TRACK 09 AUDIO
TITLE "Путник в ночи"
PERFORMER "Игорь Крестовский"
    INDEX 01 30:28:00
  TRACK 10 AUDIO
TITLE "Желание"
PERFORMER "Игорь Крестовский"
    INDEX 01 35:41:00
  TRACK 11 AUDIO
TITLE "Интро"
PERFORMER "Игорь Крестовский"
    INDEX 01 40:24:00
  TRACK 12 AUDIO
TITLE "Тусовка"
PERFORMER "Игорь Крестовский"
    INDEX 01 41:09:33
  TRACK 13 AUDIO
TITLE "Прощай (Начало)"
PERFORMER "С. Медведев"
    INDEX 01 45:55:00
belomor30 вне форума   Ответить с цитированием
6 пользователя(ей) сказали cпасибо:
Вит70 (12.01.2019), Борис 63 (11.01.2019), Саша (beloborod) (12.01.2019), victor1953 (25.01.2019), yoks (12.01.2019), Yury_T (12.01.2019)
Старый 04.02.2019, 15:43   #4
Печальный принц
Пользователь
 

Регистрация: 19.10.2012
Сообщений: 74
Сказал(а) спасибо: 735
Поблагодарили 72 раз(а) в 37 сообщениях
Печальный принц - очень-очень хороший человекПечальный принц - очень-очень хороший человекПечальный принц - очень-очень хороший человекПечальный принц - очень-очень хороший человек
По умолчанию

С.Медведев - Прощай


А у кого-нибудь есть эта композиция в полном виде?

Был ли полноценный альбом у данного исполнителя?
Печальный принц вне форума   Ответить с цитированием
Ответ

Закладки

Опции темы
Опции просмотра

Ваши права в разделе
Вы не можете создавать новые темы
Вы не можете отвечать в темах
Вы не можете прикреплять вложения
Вы не можете редактировать свои сообщения

BB коды Вкл.
Смайлы Вкл.
[IMG] код Вкл.
HTML код Выкл.

Быстрый переход


Часовой пояс GMT, время: 23:36.


Powered by vBulletin® Version 3.8.2
Copyright ©2000 - 2019, Jelsoft Enterprises Ltd. Перевод: zCarot
Rambler's Top100 Республика Татарстан - Каталог сайтов