Все Тут Online
Все Тут Online
Новые сообщения
Все сообщения за последних 24 часа
Расширенный Поиск

   
Меню сайта:
Главная
Форум
Чат
- Online приложения:
- Игры
- Выбор стиля:
- FAQ
- Для начинающих

Вернуться   Все Тут Online > МАГНИТИЗДАТ (Оцифровки Кассет и Бобин) (lossless) > В гостях у Бориса 63 (Оцифровки с бобин и с кассет) > Поп Музыка (Lossless)

Старый 21.03.2018, 11:21   #1
Борис 63
Модератор раздела оцифровок
 
Аватар для Борис 63
 

Регистрация: 01.02.2010
Адрес: СССР Москва
Сообщений: 14,155
Сказал(а) спасибо: 8,162
Поблагодарили 47,724 раз(а) в 7,600 сообщениях
Борис 63 репутация неоспоримаБорис 63 репутация неоспоримаБорис 63 репутация неоспоримаБорис 63 репутация неоспоримаБорис 63 репутация неоспоримаБорис 63 репутация неоспоримаБорис 63 репутация неоспоримаБорис 63 репутация неоспоримаБорис 63 репутация неоспоримаБорис 63 репутация неоспоримаБорис 63 репутация неоспорима
По умолчанию (24/96) Сборник Студия Лотос: Диск-жокей №9 (1990) (lossless)



Оцифровка с катушки купленной для форума Александром (Вит70)

Спасибо ему.

Треклист:

01 Лотос - Вступление
02 Минаев Сергей - Ламбада
03 Лотос - Интро
04 Газманов Олег - Эскадрон
05 Лотос - Интро
06 Электронный мальчак - Верю и жду
07 Лотос - Интро
08 Мама - Метель в чужом городе
09 Лотос - Интро
10 Анонс - Оля
11 Лотос - Интро
12 Электроверсия - Вот и всё
13 Лотос - Интро
14 Кристина - Кристина
15 Лотос - Интро
16 Берёзовый сок - Жни творец
17 Лотос - Интро
18 Тути - Бархатный сезон
19 Лотос - Интро
20 Берег - Прощальный сезон
21 Лотос - Интро
22 Александр Першин - Ночью и днём
23 Лотос - Интро
24 Ноябрьский день - Тик-так


ссылка


Скрытый текст (вы должны зарегистрироваться или войти под своим логином):
У вас нет прав чтобы видеть скрытый текст, содержащейся здесь.


mp3
Скрытый текст (вы должны зарегистрироваться или войти под своим логином):
У вас нет прав чтобы видеть скрытый текст, содержащейся здесь.
__________________
Ccылка на тему: Как скачивать с Яндекс диска!

Чтобы быстро скачать чужой опубликованный файл, сохраните его на свой Диск. На вашем Диске файл окажется мгновенно, а свои файлы вы всегда можете скачать без ограничений.
Борис 63 вне форума   Ответить с цитированием
16 пользователя(ей) сказали cпасибо:
13. (21.03.2018), Бархан (30.06.2018), Владимир 1733 (30.11.2018), Александр9841 (29.11.2018), Вит70 (21.03.2018), Дмитрий (21.03.2018), Вячеслав1972 (21.03.2018), bergedorf (21.03.2018), Boor (28.11.2018), Consul (30.06.2018), Don_G (23.03.2018), Печальный принц (02.12.2018), IIecokB (02.07.2018), jurgen 72 (24.03.2018), Саша (beloborod) (21.03.2018), Yury_T (02.07.2018)
Старый 21.03.2018, 12:13   #2
Вит70
Команда
 

Регистрация: 09.06.2011
Сообщений: 1,527
Сказал(а) спасибо: 3,710
Поблагодарили 2,820 раз(а) в 997 сообщениях
Вит70 репутация неоспоримаВит70 репутация неоспоримаВит70 репутация неоспоримаВит70 репутация неоспоримаВит70 репутация неоспоримаВит70 репутация неоспоримаВит70 репутация неоспоримаВит70 репутация неоспоримаВит70 репутация неоспоримаВит70 репутация неоспоримаВит70 репутация неоспорима
По умолчанию

Борис 63, большое спасибо!!!!

Сборник Студия Лотос: Диск-жокей №9, 1990

01 Втупление
02 Минаев Сергей - Ламбада
03 Интро
04 Газманов Олег - Эскадрон
05 Интро
06 Электронный мальчак - Верю и жду
07 Интро
08 Мама - Метель в чужом городе
09 Интро
10 Анонс - Оля
11 Интро
12 Электроверсия - Вот и всё
13 Интро
14 Кристина - Кристина
15 Интро
16 Берёзовый сок - Жни творец
17 Интро
18 Тути - Бархатный сезон
19 Интро
20 Берег - Прощальный сезон
21 Интро
22 Александр Першин - Ночью и днём
23 Интро
24 Ноябрьский день - Тик-так
Вит70 вне форума   Ответить с цитированием
5 пользователя(ей) сказали cпасибо:
Борис 63 (21.03.2018), bergedorf (21.03.2018), Consul (30.06.2018), Don_G (23.03.2018), Саша (beloborod) (21.03.2018)
Старый 21.03.2018, 12:41   #3
Дмитрий
Music Group
 
Аватар для Дмитрий
 

Регистрация: 12.12.2008
Адрес: Москва прошлого тысячелетия.
Сообщений: 119,144
Сказал(а) спасибо: 29,141
Поблагодарили 131,903 раз(а) в 49,532 сообщениях
Дмитрий репутация неоспоримаДмитрий репутация неоспоримаДмитрий репутация неоспоримаДмитрий репутация неоспоримаДмитрий репутация неоспоримаДмитрий репутация неоспоримаДмитрий репутация неоспоримаДмитрий репутация неоспоримаДмитрий репутация неоспоримаДмитрий репутация неоспоримаДмитрий репутация неоспорима
По умолчанию

CUE: https://yadi.sk/d/ag0h2vrm3TcAfT

Код:
REM GENRE "Поп"
REM DATE 1990
REM COMMENT "Оцифровка - Борис 63"
TITLE "Сборник"
PERFORMER "Студия Лотос: Диск-жокей №9"
FILE "лотос.flac" WAVE
  TRACK 01 AUDIO
TITLE "Вступление"
PERFORMER "Лотос"
    INDEX 01 00:08:14
  TRACK 02 AUDIO
TITLE "Ламбада"
PERFORMER "Минаев Сергей"
    INDEX 01 00:56:15
  TRACK 03 AUDIO
TITLE "Интро"
PERFORMER "Лотос"
    INDEX 01 04:05:50
  TRACK 04 AUDIO
TITLE "Эскадрон"
PERFORMER "Газманов Олег"
    INDEX 01 04:18:24
  TRACK 05 AUDIO
TITLE "Интро"
PERFORMER "Лотос"
    INDEX 01 07:03:64
  TRACK 06 AUDIO
TITLE "Верю и жду"
PERFORMER "Электронный мальчак"
    INDEX 01 07:27:62
  TRACK 07 AUDIO
TITLE "Интро"
PERFORMER "Лотос"
    INDEX 01 11:21:33
  TRACK 08 AUDIO
TITLE "Метель в чужом городе"
PERFORMER "Мама"
    INDEX 01 11:36:01
  TRACK 09 AUDIO
TITLE "Интро"
PERFORMER "Лотос"
    INDEX 01 17:43:70
  TRACK 10 AUDIO
TITLE "Оля"
PERFORMER "Анонс"
    INDEX 01 17:55:51
  TRACK 11 AUDIO
TITLE "Интро"
PERFORMER "Лотос"
    INDEX 01 21:14:65
  TRACK 12 AUDIO
TITLE "Вот и всё"
PERFORMER "Электроверсия"
    INDEX 01 21:30:23
  TRACK 13 AUDIO
TITLE "Интро"
PERFORMER "Лотос"
    INDEX 01 24:41:29
  TRACK 14 AUDIO
TITLE "Кристина"
PERFORMER "Кристина"
    INDEX 01 25:10:23
  TRACK 15 AUDIO
TITLE "Интро"
PERFORMER "Лотос"
    INDEX 01 28:38:40
  TRACK 16 AUDIO
TITLE "Жни творец"
PERFORMER "Берёзовый сок"
    INDEX 01 28:54:43
  TRACK 17 AUDIO
TITLE "Интро"
PERFORMER "Лотос"
    INDEX 01 32:35:53
  TRACK 18 AUDIO
TITLE "Бархатный сезон"
PERFORMER "Тути"
    INDEX 01 32:43:73
  TRACK 19 AUDIO
TITLE "Интро"
PERFORMER "Лотос"
    INDEX 01 35:48:73
  TRACK 20 AUDIO
TITLE "Прощальный сезон"
PERFORMER "Берег"
    INDEX 01 35:59:37
  TRACK 21 AUDIO
TITLE "Интро"
PERFORMER "Лотос"
    INDEX 01 39:30:62
  TRACK 22 AUDIO
TITLE "Ночью и днём"
PERFORMER "Александр Першин"
    INDEX 01 39:44:26
  TRACK 23 AUDIO
TITLE "Интро"
PERFORMER "Лотос"
    INDEX 01 43:32:08
  TRACK 24 AUDIO
TITLE "Тик-так"
PERFORMER "Ноябрьский день"
    INDEX 01 43:39:20
__________________
-
Дмитрий вне форума   Ответить с цитированием
8 пользователя(ей) сказали cпасибо:
13. (21.03.2018), Вит70 (21.03.2018), Борис 63 (21.03.2018), Вячеслав1972 (21.03.2018), bergedorf (21.03.2018), Consul (30.06.2018), Don_G (23.03.2018), Саша (beloborod) (21.03.2018)
Старый 30.06.2018, 08:56   #4
Consul
Новичок
 

Регистрация: 06.12.2016
Сообщений: 4
Сказал(а) спасибо: 20
Поблагодарили 0 раз(а) в 0 сообщениях
Consul на пути к лучшему
По умолчанию

Борис 63 и Вит70

Большое вам спасибо !

Теперь у меня будет три сборника: № 19 (lossless) и № 16 (mp3). К сожалению других не нашёл, даже в mp3 не попадались.

Последний раз редактировалось Consul; 30.06.2018 в 09:42.
Consul вне форума   Ответить с цитированием
Старый 28.11.2018, 19:54   #5
Дмитрий
Music Group
 
Аватар для Дмитрий
 

Регистрация: 12.12.2008
Адрес: Москва прошлого тысячелетия.
Сообщений: 119,144
Сказал(а) спасибо: 29,141
Поблагодарили 131,903 раз(а) в 49,532 сообщениях
Дмитрий репутация неоспоримаДмитрий репутация неоспоримаДмитрий репутация неоспоримаДмитрий репутация неоспоримаДмитрий репутация неоспоримаДмитрий репутация неоспоримаДмитрий репутация неоспоримаДмитрий репутация неоспоримаДмитрий репутация неоспоримаДмитрий репутация неоспоримаДмитрий репутация неоспорима
По умолчанию

Добавлено mp3
__________________
-
Дмитрий вне форума   Ответить с цитированием
Пользователь сказал cпасибо:
Александр9841 (29.11.2018)
Старый 29.11.2018, 18:20   #6
Александр9841
Местный
 

Регистрация: 07.02.2011
Сообщений: 167
Сказал(а) спасибо: 198
Поблагодарили 163 раз(а) в 75 сообщениях
Александр9841 - просто великолепная личностьАлександр9841 - просто великолепная личностьАлександр9841 - просто великолепная личностьАлександр9841 - просто великолепная личностьАлександр9841 - просто великолепная личностьАлександр9841 - просто великолепная личностьАлександр9841 - просто великолепная личность
По умолчанию

Большое спасибо!
Александр9841 вне форума   Ответить с цитированием
Ответ

Закладки

Опции темы
Опции просмотра

Ваши права в разделе
Вы не можете создавать новые темы
Вы не можете отвечать в темах
Вы не можете прикреплять вложения
Вы не можете редактировать свои сообщения

BB коды Вкл.
Смайлы Вкл.
[IMG] код Вкл.
HTML код Выкл.

Быстрый переход


Часовой пояс GMT, время: 17:15.


Powered by vBulletin® Version 3.8.2
Copyright ©2000 - 2019, Jelsoft Enterprises Ltd. Перевод: zCarot
Rambler's Top100 Республика Татарстан - Каталог сайтов