Все Тут Online
Все Тут Online
Новые сообщения
Все сообщения за последних 24 часа
Расширенный Поиск

   
Меню сайта:
Главная
Форум
Чат
- Online приложения:
- Игры
- Выбор стиля:
- FAQ
- Для начинающих

Вернуться   Все Тут Online > МАГНИТИЗДАТ (Оцифровки Кассет и Бобин) (lossless) > В гостях у Бориса 63 (Оцифровки с бобин и с кассет) > Поп Музыка (Lossless)

Старый 02.04.2018, 15:16   #1
Борис 63
Модератор раздела оцифровок
 
Аватар для Борис 63
 

Регистрация: 01.02.2010
Адрес: СССР Москва
Сообщений: 14,143
Сказал(а) спасибо: 8,144
Поблагодарили 47,662 раз(а) в 7,592 сообщениях
Борис 63 репутация неоспоримаБорис 63 репутация неоспоримаБорис 63 репутация неоспоримаБорис 63 репутация неоспоримаБорис 63 репутация неоспоримаБорис 63 репутация неоспоримаБорис 63 репутация неоспоримаБорис 63 репутация неоспоримаБорис 63 репутация неоспоримаБорис 63 репутация неоспоримаБорис 63 репутация неоспорима
По умолчанию (24/96) С.С.Э. 1988 № 6 - Девочка моя синеглазая (lossless)





Оцифровка с катушки купленной для форума Александром (Вит70)
Спасибо ему.

С.С.Э. 1988 № 6 - Девочка моя синеглазая



01.Белоусов Евгений - Девочка моя синеглазая
02.Поплавская Я. и Тиханович А. - Счастливый случай
03.Лазарева Светлана - Уроки дочерям
04.Лазарева Светлана - Секрет красоты
05.Барыкин Александр - Дождь и снег
06.Пламя - Тренинг
07.Куклин Владимир - Верни
08.Ротару София - Печаль
09.Жилинский А. - Баобабская сказка
10.Смеян Павел - Джованна
11.Миронов С. – Рижское взморье


ссылка


Скрытый текст (вы должны зарегистрироваться или войти под своим логином):
У вас нет прав чтобы видеть скрытый текст, содержащейся здесь.


mp3
Скрытый текст (вы должны зарегистрироваться или войти под своим логином):
У вас нет прав чтобы видеть скрытый текст, содержащейся здесь.
__________________
Ccылка на тему: Как скачивать с Яндекс диска!

Чтобы быстро скачать чужой опубликованный файл, сохраните его на свой Диск. На вашем Диске файл окажется мгновенно, а свои файлы вы всегда можете скачать без ограничений.

Последний раз редактировалось Борис 63; 02.04.2018 в 16:07.
Борис 63 вне форума   Ответить с цитированием
8 пользователя(ей) сказали cпасибо:
13. (03.04.2018), Александр9841 (29.11.2018), Вит70 (02.04.2018), Consul (30.06.2018), cthutq_1956 (02.04.2018), Саша (beloborod) (02.04.2018), victor1953 (05.04.2018), Yury_T (04.04.2018)
Старый 02.04.2018, 15:56   #2
Вит70
Команда
 

Регистрация: 09.06.2011
Сообщений: 1,506
Сказал(а) спасибо: 3,689
Поблагодарили 2,725 раз(а) в 981 сообщениях
Вит70 репутация неоспоримаВит70 репутация неоспоримаВит70 репутация неоспоримаВит70 репутация неоспоримаВит70 репутация неоспоримаВит70 репутация неоспоримаВит70 репутация неоспоримаВит70 репутация неоспоримаВит70 репутация неоспоримаВит70 репутация неоспоримаВит70 репутация неоспорима
По умолчанию

Борис 63, большое спасибо!!!!

С.С.Э. 1988 № 6 - Девочка моя синеглазая

Сторона 1

01.Белоусов Евгений - Девочка моя синеглазая
02.Поплавская Я. и Тиханович А. - Счастливый случай
03.Лазарева Светлана - Уроки дочерям
04.Лазарева Светлана - Секрет красоты
05.Барыкин Александр - Дождь и снег
06.Пламя - Тренинг
07.Куклин Владимир - Верни
08.Ротару София - Печаль
09.Жилинский А. - Баобабская сказка
10.Смеян Павел - Джованна
11.Миронов С. – Рижское взморье
Вит70 на форуме   Ответить с цитированием
3 пользователя(ей) сказали cпасибо:
13. (03.04.2018), Борис 63 (02.04.2018), Саша (beloborod) (02.04.2018)
Старый 04.04.2018, 00:24   #3
Дмитрий
Music Group
 
Аватар для Дмитрий
 

Регистрация: 12.12.2008
Адрес: Москва прошлого тысячелетия.
Сообщений: 118,777
Сказал(а) спасибо: 29,094
Поблагодарили 131,396 раз(а) в 49,421 сообщениях
Дмитрий репутация неоспоримаДмитрий репутация неоспоримаДмитрий репутация неоспоримаДмитрий репутация неоспоримаДмитрий репутация неоспоримаДмитрий репутация неоспоримаДмитрий репутация неоспоримаДмитрий репутация неоспоримаДмитрий репутация неоспоримаДмитрий репутация неоспоримаДмитрий репутация неоспорима
Отправить сообщение для Дмитрий с помощью Skype™
По умолчанию

CUE: https://yadi.sk/d/KQ4DwUZf3U4vYt

Код:
REM GENRE "Поп"
REM DATE 1988
REM COMMENT "Оцифровка - Борис 63"
TITLE "Девочка моя синеглазая"
PERFORMER "С.С.Э. 1988 № 6"
FILE "сборник 88 -11-.flac" WAVE
  TRACK 01 AUDIO
TITLE "Девочка моя синеглазая"
PERFORMER "Белоусов Евгений"
    INDEX 01 00:00:00
  TRACK 02 AUDIO
TITLE "Счастливый случай"
PERFORMER "Поплавская Я. и Тиханович А."
    INDEX 01 06:09:25
  TRACK 03 AUDIO
TITLE "Уроки дочерям"
PERFORMER "Лазарева Светлана"
    INDEX 01 10:15:36
  TRACK 04 AUDIO
TITLE "Секрет красоты"
PERFORMER "Лазарева Светлана"
    INDEX 01 13:28:65
  TRACK 05 AUDIO
TITLE "Дождь и снег"
PERFORMER "Барыкин Александр"
    INDEX 01 15:49:45
  TRACK 06 AUDIO
TITLE "Тренинг"
PERFORMER "Пламя"
    INDEX 01 20:22:60
  TRACK 07 AUDIO
TITLE "Верни"
PERFORMER "Куклин Владимир"
    INDEX 01 22:37:31
  TRACK 08 AUDIO
TITLE "Печаль"
PERFORMER "Ротару София"
    INDEX 01 27:46:12
  TRACK 09 AUDIO
TITLE "Баобабская сказка"
PERFORMER "Жилинский А."
    INDEX 01 31:36:33
  TRACK 10 AUDIO
TITLE "Джованна"
PERFORMER "Смеян Павел"
    INDEX 01 34:39:35
  TRACK 11 AUDIO
TITLE "Рижское взморье"
PERFORMER "Миронов С."
    INDEX 01 39:07:02
__________________
Кто желает поддержать форум (ВТО vsetutonline.com) напишите мне в личку!
Cпасибо Вам большое!
Дмитрий вне форума   Ответить с цитированием
3 пользователя(ей) сказали cпасибо:
Вит70 (04.04.2018), Борис 63 (04.04.2018), Саша (beloborod) (04.04.2018)
Старый 28.11.2018, 19:54   #4
Дмитрий
Music Group
 
Аватар для Дмитрий
 

Регистрация: 12.12.2008
Адрес: Москва прошлого тысячелетия.
Сообщений: 118,777
Сказал(а) спасибо: 29,094
Поблагодарили 131,396 раз(а) в 49,421 сообщениях
Дмитрий репутация неоспоримаДмитрий репутация неоспоримаДмитрий репутация неоспоримаДмитрий репутация неоспоримаДмитрий репутация неоспоримаДмитрий репутация неоспоримаДмитрий репутация неоспоримаДмитрий репутация неоспоримаДмитрий репутация неоспоримаДмитрий репутация неоспоримаДмитрий репутация неоспорима
Отправить сообщение для Дмитрий с помощью Skype™
По умолчанию

Добавлено mp3
__________________
Кто желает поддержать форум (ВТО vsetutonline.com) напишите мне в личку!
Cпасибо Вам большое!
Дмитрий вне форума   Ответить с цитированием
Пользователь сказал cпасибо:
Александр9841 (29.11.2018)
Старый 29.11.2018, 18:19   #5
Александр9841
Местный
 

Регистрация: 07.02.2011
Сообщений: 167
Сказал(а) спасибо: 196
Поблагодарили 163 раз(а) в 75 сообщениях
Александр9841 - просто великолепная личностьАлександр9841 - просто великолепная личностьАлександр9841 - просто великолепная личностьАлександр9841 - просто великолепная личностьАлександр9841 - просто великолепная личностьАлександр9841 - просто великолепная личностьАлександр9841 - просто великолепная личность
По умолчанию

Огромное спасибо!
Александр9841 вне форума   Ответить с цитированием
Ответ

Закладки

Опции темы
Опции просмотра

Ваши права в разделе
Вы не можете создавать новые темы
Вы не можете отвечать в темах
Вы не можете прикреплять вложения
Вы не можете редактировать свои сообщения

BB коды Вкл.
Смайлы Вкл.
[IMG] код Вкл.
HTML код Выкл.

Быстрый переход


Часовой пояс GMT, время: 14:29.


Powered by vBulletin® Version 3.8.2
Copyright ©2000 - 2019, Jelsoft Enterprises Ltd. Перевод: zCarot
Rambler's Top100 Республика Татарстан - Каталог сайтов