Все Тут Online
Все Тут Online
Новые сообщения
Все сообщения за последних 24 часа
Расширенный Поиск

   
Меню сайта:
Главная
Форум
Чат
- Online приложения:
- Игры
- Выбор стиля:
- FAQ
- Для начинающих

Вернуться   Все Тут Online > МАГНИТИЗДАТ (Оцифровки Кассет и Бобин) (lossless) > В гостях у Бориса 63 (Оцифровки с бобин и с кассет) > Поп Музыка (Lossless)

Старый 22.12.2018, 08:51   #1
Борис 63
Супермодератор. Смотрящий за форумом. Модератор разделов оцифровок.
 
Аватар для Борис 63
 

Регистрация: 01.02.2010
Адрес: СССР Москва
Сообщений: 13,918
Сказал(а) спасибо: 7,949
Поблагодарили 46,362 раз(а) в 7,420 сообщениях
Борис 63 репутация неоспоримаБорис 63 репутация неоспоримаБорис 63 репутация неоспоримаБорис 63 репутация неоспоримаБорис 63 репутация неоспоримаБорис 63 репутация неоспоримаБорис 63 репутация неоспоримаБорис 63 репутация неоспоримаБорис 63 репутация неоспоримаБорис 63 репутация неоспоримаБорис 63 репутация неоспорима
По умолчанию (24/96) Аркадий Укупник - Восток - дело тонкое, Петруха! 1993 (lossless)



Оцифровка с катушки Александра (Вит70)
Спасибо ему.

Подающий аппарат - на фото.




ссылка

Скрытый текст (вы должны зарегистрироваться или войти под своим логином):
У вас нет прав чтобы видеть скрытый текст, содержащейся здесь.
__________________
Ccылка на тему: Как скачивать с Яндекс диска!

Чтобы быстро скачать чужой опубликованный файл, сохраните его на свой Диск. На вашем Диске файл окажется мгновенно, а свои файлы вы всегда можете скачать без ограничений.
Борис 63 вне форума   Ответить с цитированием
3 пользователя(ей) сказали cпасибо:
cthutq_1956 (22.12.2018), Саша (beloborod) (22.12.2018), victor1953 (02.01.2019)
Старый 22.12.2018, 09:13   #2
Вит70
Команда
 

Регистрация: 09.06.2011
Сообщений: 1,440
Сказал(а) спасибо: 3,559
Поблагодарили 2,584 раз(а) в 928 сообщениях
Вит70 репутация неоспоримаВит70 репутация неоспоримаВит70 репутация неоспоримаВит70 репутация неоспоримаВит70 репутация неоспоримаВит70 репутация неоспоримаВит70 репутация неоспоримаВит70 репутация неоспоримаВит70 репутация неоспоримаВит70 репутация неоспоримаВит70 репутация неоспорима
По умолчанию

Борис 63, большое спасибо!!!!

Аркадий Укупник - Восток - дело тонкое,Петруха! 1993
01 Золотое солнце
02 Маргаритка
03 Петруха
04 Тихий вечер
05 Монте-Карло
06 Капитанская дочка
07 Рио-Рио
Дописка
08 Сергей Минаев - Пиковый король
09 Сергей Минаев - Русский мат
10 Сергей Минаев - Джулиет..
Вит70 вне форума   Ответить с цитированием
Пользователь сказал cпасибо:
Саша (beloborod) (22.12.2018)
Старый 22.12.2018, 09:16   #3
cthutq_1956
VIP
 
Аватар для cthutq_1956
 

Регистрация: 17.11.2016
Адрес: Челябинск
Сообщений: 3,764
Сказал(а) спасибо: 6,585
Поблагодарили 2,063 раз(а) в 1,530 сообщениях
cthutq_1956 репутация неоспоримаcthutq_1956 репутация неоспоримаcthutq_1956 репутация неоспоримаcthutq_1956 репутация неоспоримаcthutq_1956 репутация неоспоримаcthutq_1956 репутация неоспоримаcthutq_1956 репутация неоспоримаcthutq_1956 репутация неоспоримаcthutq_1956 репутация неоспоримаcthutq_1956 репутация неоспоримаcthutq_1956 репутация неоспорима
По умолчанию

Освежает память,в не лёгкие времена весёлые песни скрашивали будни. Спасибо .

Последний раз редактировалось cthutq_1956; 22.12.2018 в 09:21.
cthutq_1956 вне форума   Ответить с цитированием
Старый 22.12.2018, 09:18   #4
Борис 63
Супермодератор. Смотрящий за форумом. Модератор разделов оцифровок.
 
Аватар для Борис 63
 

Регистрация: 01.02.2010
Адрес: СССР Москва
Сообщений: 13,918
Сказал(а) спасибо: 7,949
Поблагодарили 46,362 раз(а) в 7,420 сообщениях
Борис 63 репутация неоспоримаБорис 63 репутация неоспоримаБорис 63 репутация неоспоримаБорис 63 репутация неоспоримаБорис 63 репутация неоспоримаБорис 63 репутация неоспоримаБорис 63 репутация неоспоримаБорис 63 репутация неоспоримаБорис 63 репутация неоспоримаБорис 63 репутация неоспоримаБорис 63 репутация неоспорима
По умолчанию

Вит70,

Саш ,как тебе , на твой слух , эта копия?

Пленка-то конечно виды повидала - грязь с неё летит , но .................

Дальше сам.
__________________
Ccылка на тему: Как скачивать с Яндекс диска!

Чтобы быстро скачать чужой опубликованный файл, сохраните его на свой Диск. На вашем Диске файл окажется мгновенно, а свои файлы вы всегда можете скачать без ограничений.
Борис 63 вне форума   Ответить с цитированием
Старый 22.12.2018, 09:41   #5
Вит70
Команда
 

Регистрация: 09.06.2011
Сообщений: 1,440
Сказал(а) спасибо: 3,559
Поблагодарили 2,584 раз(а) в 928 сообщениях
Вит70 репутация неоспоримаВит70 репутация неоспоримаВит70 репутация неоспоримаВит70 репутация неоспоримаВит70 репутация неоспоримаВит70 репутация неоспоримаВит70 репутация неоспоримаВит70 репутация неоспоримаВит70 репутация неоспоримаВит70 репутация неоспоримаВит70 репутация неоспорима
По умолчанию

Борис слушать можно, но я думал что качество будет лучше.
Вит70 вне форума   Ответить с цитированием
Старый 23.12.2018, 10:15   #6
belomor30
VIP
 
Аватар для belomor30
 

Регистрация: 28.10.2015
Адрес: Город Пермь
Сообщений: 514
Сказал(а) спасибо: 676
Поблагодарили 801 раз(а) в 340 сообщениях
belomor30 репутация неоспоримаbelomor30 репутация неоспоримаbelomor30 репутация неоспоримаbelomor30 репутация неоспоримаbelomor30 репутация неоспоримаbelomor30 репутация неоспоримаbelomor30 репутация неоспоримаbelomor30 репутация неоспоримаbelomor30 репутация неоспоримаbelomor30 репутация неоспоримаbelomor30 репутация неоспорима
По умолчанию

CUE-SHEET:
Аркадий Укупник (p)1993 Восток - дело тонкое, Петруха!

Код:
REM GENRE POP
REM DATE 1993
REM COMMENT "Reel-to-Reel Deck 'TEAC X-1000R' => 'Zoom h4n'"
REM COMMENT "Specially for http://vsetutonline.com"
REM COMMENT "Запись из коллекции - Александр (Вит70)"   
REM COMMENT "Оцифровка - Борис 63"
PERFORMER "Аркадий Укупник"
TITLE "Восток - дело тонкое, Петруха!"
FILE "Укупник.flac" WAVE
  TRACK 01 AUDIO
    TITLE "Золотое солнце"
    INDEX 01 00:00:00
  TRACK 02 AUDIO
    TITLE "Маргаритка"
    INDEX 01 04:09:00
  TRACK 03 AUDIO
    TITLE "Петруха"
    INDEX 01 07:42:00
  TRACK 04 AUDIO
    TITLE "Тихий вечер"
    INDEX 01 11:45:00
  TRACK 05 AUDIO
    TITLE "Монте-Карло"
    INDEX 01 18:20:00
  TRACK 06 AUDIO
    TITLE "Капитанская дочка"
    INDEX 01 22:33:00
  TRACK 07 AUDIO
    TITLE "Рио-Рио"
    INDEX 01 26:16:00
  TRACK 08 AUDIO
PERFORMER "Сергей Минаев"
    TITLE "Пиковый король"
    INDEX 01 30:57:00
  TRACK 09 AUDIO
PERFORMER "Сергей Минаев"
    TITLE "Русский мат"
    INDEX 01 35:44:57
  TRACK 10 AUDIO
PERFORMER "Сергей Минаев"
    TITLE "Джулиет..."
    INDEX 01 39:05:30
belomor30 вне форума   Ответить с цитированием
2 пользователя(ей) сказали cпасибо:
Вит70 (23.12.2018), cthutq_1956 (23.12.2018)
Ответ

Закладки

Опции темы
Опции просмотра

Ваши права в разделе
Вы не можете создавать новые темы
Вы не можете отвечать в темах
Вы не можете прикреплять вложения
Вы не можете редактировать свои сообщения

BB коды Вкл.
Смайлы Вкл.
[IMG] код Вкл.
HTML код Выкл.

Быстрый переход


Часовой пояс GMT, время: 11:15.


Powered by vBulletin® Version 3.8.2
Copyright ©2000 - 2019, Jelsoft Enterprises Ltd. Перевод: zCarot
Rambler's Top100 Республика Татарстан - Каталог сайтов