Все Тут Online
Все Тут Online
Новые сообщения
Все сообщения за последних 24 часа
Расширенный Поиск

   
Меню сайта:
Главная
Форум
Чат
- Online приложения:
- Игры
- Выбор стиля:
- FAQ
- Для начинающих

Вернуться   Все Тут Online > МАГНИТИЗДАТ (Оцифровки Кассет и Бобин) (lossless) > В гостях у Бориса 63 (Оцифровки с бобин и с кассет) > Поп Музыка (Lossless)

Старый 03.08.2016, 15:08   #1
Борис 63
Супермодератор. Смотрящий за форумом. Модератор разделов оцифровок.
 
Аватар для Борис 63
 

Регистрация: 01.02.2010
Адрес: СССР Москва
Сообщений: 13,917
Сказал(а) спасибо: 7,949
Поблагодарили 46,361 раз(а) в 7,419 сообщениях
Борис 63 репутация неоспоримаБорис 63 репутация неоспоримаБорис 63 репутация неоспоримаБорис 63 репутация неоспоримаБорис 63 репутация неоспоримаБорис 63 репутация неоспоримаБорис 63 репутация неоспоримаБорис 63 репутация неоспоримаБорис 63 репутация неоспоримаБорис 63 репутация неоспоримаБорис 63 репутация неоспорима
По умолчанию (24/96) Электро поп-дуэт -Монни и Тонни- -ночь- 1991 год (lossless)





треклист

01 Интро
02 Твои сказки
03 Аромат цветов
04 Напрасно ждёшь
05 Реклама гр.Стелла
06 Нам было хорошо
07 Кристина
08 Ночь (Милый ангел мой)
09 Уедим в Крым
10 Любовь
11 Глупышка (Ты иди домой)
Дописка
12 Реклама гр.Стелла
13 Альфа - Эй, гусары
14 М.Вилор - Снег
15 Н.Королёва - Жёлтые тюльпаны


оцифровка с катушки

Катушки куплены для форума Александром (Вит70)

Спасибо ему!!!


Подающий аппарат - на фото

Магнитная лента - Славич - тип - Б 3719


ссылка


Скрытый текст (вы должны зарегистрироваться или войти под своим логином):
У вас нет прав чтобы видеть скрытый текст, содержащейся здесь.
__________________
Ccылка на тему: Как скачивать с Яндекс диска!

Чтобы быстро скачать чужой опубликованный файл, сохраните его на свой Диск. На вашем Диске файл окажется мгновенно, а свои файлы вы всегда можете скачать без ограничений.

Последний раз редактировалось Борис 63; 03.08.2016 в 15:52.
Борис 63 вне форума   Ответить с цитированием
15 пользователя(ей) сказали cпасибо:
Алексей 69 (03.08.2016), Алексей--95 (03.08.2016), Вит70 (03.08.2016), Анатолий1978 (06.08.2016), Denis1985 (07.08.2016), gggr (03.08.2016), Печальный принц (13.08.2016), lesnichij (30.10.2018), MC Echtch (04.08.2016), Саенко (08.12.2018), саня 444497 (01.11.2018), Саша (beloborod) (03.08.2016), SRF (06.08.2016), Yury_T (15.08.2016), zitrus (04.08.2016)
Старый 03.08.2016, 15:51   #2
Вит70
Команда
 

Регистрация: 09.06.2011
Сообщений: 1,440
Сказал(а) спасибо: 3,559
Поблагодарили 2,584 раз(а) в 928 сообщениях
Вит70 репутация неоспоримаВит70 репутация неоспоримаВит70 репутация неоспоримаВит70 репутация неоспоримаВит70 репутация неоспоримаВит70 репутация неоспоримаВит70 репутация неоспоримаВит70 репутация неоспоримаВит70 репутация неоспоримаВит70 репутация неоспоримаВит70 репутация неоспорима
По умолчанию

Борис 63, большое спасибо!!!!

Электро поп-дуэт -Монни и Тонни - Ночь- 1991

01 Интро
02 Твои сказки
03 Аромат цветов
04 Напрасно ждёшь
05 Реклама гр.Стелла
06 Нам было хорошо
07 Кристина
08 Ночь (Милый ангел мой)
09 Уедим в Крым
10 Любовь
11 Глупышка (Ты иди домой)
Дописка
12 Реклама гр.Стелла
13 Альфа - Эй, гусары
14 М.Вилор - Снег
15 Н.Королёва - Жёлтые тюльпаны
Вит70 вне форума   Ответить с цитированием
4 пользователя(ей) сказали cпасибо:
Борис 63 (03.08.2016), Печальный принц (13.08.2016), Саша (beloborod) (03.08.2016), Yury_T (15.08.2016)
Старый 03.08.2016, 16:31   #3
Алексей--95
Пользователь
 

Регистрация: 07.11.2015
Сообщений: 62
Сказал(а) спасибо: 95
Поблагодарили 249 раз(а) в 59 сообщениях
Алексей--95 за этого человека можно гордитсяАлексей--95 за этого человека можно гордитсяАлексей--95 за этого человека можно гордитсяАлексей--95 за этого человека можно гордитсяАлексей--95 за этого человека можно гордитсяАлексей--95 за этого человека можно гордитсяАлексей--95 за этого человека можно гордитсяАлексей--95 за этого человека можно гордитсяАлексей--95 за этого человека можно гордится
По умолчанию

CUE
Код:
REM GENRE Pop
REM DATE 1991
REM COMMENT "Оцифровка - Борис 63"
PERFORMER "Электро поп-дуэт Монни и Тонни"
TITLE "Ночь"
FILE "Монни и Тонни - 91.flac" WAVE
  TRACK 01 AUDIO
    TITLE "Интро"
    PERFORMER "Электро поп-дуэт Монни и Тонни"
    INDEX 01 00:00:00
  TRACK 02 AUDIO
    TITLE "Твои сказки"
    PERFORMER "Электро поп-дуэт Монни и Тонни"
    INDEX 01 00:22:73
  TRACK 03 AUDIO
    TITLE "Аромат цветов"
    PERFORMER "Электро поп-дуэт Монни и Тонни"
    INDEX 01 03:58:59
  TRACK 04 AUDIO
    TITLE "Напрасно ждёшь"
    PERFORMER "Электро поп-дуэт Монни и Тонни"
    INDEX 01 06:36:66
  TRACK 05 AUDIO
    TITLE "Реклама гр. Стелла"
    INDEX 01 12:03:61
  TRACK 06 AUDIO
    TITLE "Нам было хорошо"
    PERFORMER "Электро поп-дуэт Монни и Тонни"
    INDEX 01 15:37:36
  TRACK 07 AUDIO
    TITLE "Кристина"
    PERFORMER "Электро поп-дуэт Монни и Тонни"
    INDEX 01 19:16:05
  TRACK 08 AUDIO
    TITLE "Ночь (Милый ангел мой)"
    PERFORMER "Электро поп-дуэт Монни и Тонни"
    INDEX 01 22:23:49
  TRACK 09 AUDIO
    TITLE "Уедим в Крым"
    PERFORMER "Электро поп-дуэт Монни и Тонни"
    INDEX 01 25:53:57
  TRACK 10 AUDIO
    TITLE "Любовь"
    PERFORMER "Электро поп-дуэт Монни и Тонни"
    INDEX 01 29:15:08
  TRACK 11 AUDIO
    TITLE "Глупышка (Ты иди домой)"
    PERFORMER "Электро поп-дуэт Монни и Тонни"
    INDEX 01 32:33:49
  TRACK 12 AUDIO
    TITLE "Реклама гр. Стелла"
    INDEX 01 34:38:43
  TRACK 13 AUDIO
    TITLE "Эй, гусары"
    PERFORMER "Альфа"
    INDEX 01 38:17:06
  TRACK 14 AUDIO
    TITLE "Снег"
    PERFORMER "М. Вилор"
    INDEX 01 41:27:61
  TRACK 15 AUDIO
    TITLE "Жёлтые тюльпаны"
    PERFORMER "Н. Королёва"
    INDEX 01 44:38:56
Алексей--95 вне форума   Ответить с цитированием
6 пользователя(ей) сказали cпасибо:
Вит70 (03.08.2016), Борис 63 (03.08.2016), Крепыш (07.08.2016), Саша (beloborod) (03.08.2016), SRF (06.08.2016), Yury_T (15.08.2016)
Старый 08.12.2018, 20:09   #4
Виталий из Ставрополья
Пользователь
 

Регистрация: 06.10.2018
Сообщений: 92
Сказал(а) спасибо: 27
Поблагодарили 0 раз(а) в 0 сообщениях
Виталий из Ставрополья на пути к лучшему
По умолчанию

привет просьба скиньте куе очень надо зарание спосибо
__________________
Виталий
Виталий из Ставрополья вне форума   Ответить с цитированием
Старый 08.12.2018, 20:11   #5
Дмитрий
Music Group
 
Аватар для Дмитрий
 

Регистрация: 12.12.2008
Адрес: Москва прошлого тысячелетия.
Сообщений: 114,859
Сказал(а) спасибо: 28,006
Поблагодарили 125,182 раз(а) в 47,639 сообщениях
Дмитрий репутация неоспоримаДмитрий репутация неоспоримаДмитрий репутация неоспоримаДмитрий репутация неоспоримаДмитрий репутация неоспоримаДмитрий репутация неоспоримаДмитрий репутация неоспоримаДмитрий репутация неоспоримаДмитрий репутация неоспоримаДмитрий репутация неоспоримаДмитрий репутация неоспорима
Отправить сообщение для Дмитрий с помощью Skype™
По умолчанию

Виталий из Ставрополья, ну так, CUE расположено постом выше.
__________________












Ccылка на тему: Как скачивать с Яндекс диска!

Чтобы быстро скачать чужой опубликованный файл, сохраните его на свой Диск. На вашем Диске файл окажется мгновенно, а свои файлы вы всегда можете скачать без ограничений. Для этого нужно пройти регистрацию на https://mail.yandex.ru/

Уж лучше голодать, чем что попало есть... И лучше одному, чем вместе с кем попало.

Не работают ссылки, не надо флудить в теме. Сообщите ЗДЕСЬ!




Скачал и не оставил комментарий - понизил релизёру мотивацию делиться с окружающими!

Команда Все Тут желает Вам приятного прослушивания!







Дмитрий вне форума   Ответить с цитированием
Ответ

Закладки

Опции темы
Опции просмотра

Ваши права в разделе
Вы не можете создавать новые темы
Вы не можете отвечать в темах
Вы не можете прикреплять вложения
Вы не можете редактировать свои сообщения

BB коды Вкл.
Смайлы Вкл.
[IMG] код Вкл.
HTML код Выкл.

Быстрый переход


Часовой пояс GMT, время: 11:08.


Powered by vBulletin® Version 3.8.2
Copyright ©2000 - 2019, Jelsoft Enterprises Ltd. Перевод: zCarot
Rambler's Top100 Республика Татарстан - Каталог сайтов