Все Тут Online
Все Тут Online
Новые сообщения
Все сообщения за последних 24 часа
Расширенный Поиск

   
Меню сайта:
Главная
Форум
Чат
- Online приложения:
- Игры
- Выбор стиля:
- FAQ
- Для начинающих

Вернуться   Все Тут Online > ОЦИФРОВКИ ВИНИЛА (Lossless) > RETRO, CLASSIC (Lossless) > Отечественная

Старый 10.11.2013, 16:33   #1
Дмитрий
Music Group
 
Аватар для Дмитрий
 

Регистрация: 12.12.2008
Адрес: Москва прошлого тысячелетия.
Сообщений: 137,095
Сказал(а) спасибо: 31,792
Поблагодарили 153,575 раз(а) в 56,337 сообщениях
Дмитрий репутация неоспоримаДмитрий репутация неоспоримаДмитрий репутация неоспоримаДмитрий репутация неоспоримаДмитрий репутация неоспоримаДмитрий репутация неоспоримаДмитрий репутация неоспоримаДмитрий репутация неоспоримаДмитрий репутация неоспоримаДмитрий репутация неоспоримаДмитрий репутация неоспорима
По умолчанию [24/96] Евгений Мартынов - Евгений Мартынов поёт свои песни (1980) Lossless

Евгений Мартынов - Евгений Мартынов поёт свои песни




Жанр: VARIETY
Год выпуска: 1980
Лейбл: МЕЛОДИЯ 33 С60-12521-22
Страна-производитель: СССР
Аудио кодек: FLAC
Тип рипа: image+.cue
Формат записи: 24/96
Формат раздачи: 24/96
Продолжительность: 36:33

Треклист:

1 С Т О Р О Н А
1) У Есенина день рождения
2) Свадебный вальс
3) Трава лебеда
4) Прости
5) Ах, как хочется влюбиться

2 С Т О Р О Н А
1) На качелях
2) Верую в тебя
3) Скажи мне, вишня
4) Натали


Источник оцифровки: Юрий 1963
Код класса состояния винила: NM
Устройство воспроизведения: Корвет ЭП-003, головка Shure M95G
Предварительный усилитель: клон CREEK OBH-8SE
АЦП: M-Audio Audiophile 2496
Программа-оцифровщик: WaveLab 6.11
Обработка: VST DeClick, EQ-1



Мартынов.cue

Скрытый текст (вы должны зарегистрироваться или войти под своим логином):
У вас нет прав чтобы видеть скрытый текст, содержащейся здесь.
Дмитрий вне форума   Ответить с цитированием
12 пользователя(ей) сказали cпасибо:
Евгений80 (23.10.2015), Ведущий (20.10.2015), Геннадий К (11.11.2016), Владимир 1733 (11.11.2013), Глебушка (23.10.2015), Goh78 (13.06.2016), hunter670 (03.02.2017), Igor64 (28.02.2019), kopilovoleg (23.10.2015), kork (08.10.2016), Синдикат (11.11.2013), sergey bush (15.11.2013)
Старый 11.11.2013, 17:24   #2
Синдикат
Местный
 
Аватар для Синдикат
 

Регистрация: 15.08.2012
Адрес: Житель вселенной
Сообщений: 9,170
Сказал(а) спасибо: 7,868
Поблагодарили 10,540 раз(а) в 5,299 сообщениях
Синдикат репутация неоспоримаСиндикат репутация неоспоримаСиндикат репутация неоспоримаСиндикат репутация неоспоримаСиндикат репутация неоспоримаСиндикат репутация неоспоримаСиндикат репутация неоспоримаСиндикат репутация неоспоримаСиндикат репутация неоспоримаСиндикат репутация неоспоримаСиндикат репутация неоспорима
По умолчанию

Дмитрий, спасибо, эту тему пожалуй нужно Сделать главной, это единственный винил, гигант, где записали Евгения Мартынова я бы сказал все его творчество.
__________________
Ccылка на тему: Как скачивать с Яндекс диска!

Чтобы быстро скачать чужой опубликованный файл, сохраните его на свой Диск. На вашем Диске файл окажется мгновенно, а свои файлы вы всегда можете скачать без ограничений.

Кто владеет и управляет прошлым , тот владеет настоящим и будущим.

Синдикат вне форума   Ответить с цитированием
Пользователь сказал cпасибо:
ogogun (21.09.2017)
Старый 15.11.2013, 03:12   #3
sergey bush
Новичок
 

Регистрация: 03.11.2012
Сообщений: 9
Сказал(а) спасибо: 26
Поблагодарили 1 раз в 1 сообщении
sergey bush на пути к лучшему
По умолчанию

В раздаче отсутствует, cue. Будьте добры, закиньте cue
С уважением, Сергей
sergey bush вне форума   Ответить с цитированием
Старый 15.11.2013, 05:24   #4
Дмитрий
Music Group
 
Аватар для Дмитрий
 

Регистрация: 12.12.2008
Адрес: Москва прошлого тысячелетия.
Сообщений: 137,095
Сказал(а) спасибо: 31,792
Поблагодарили 153,575 раз(а) в 56,337 сообщениях
Дмитрий репутация неоспоримаДмитрий репутация неоспоримаДмитрий репутация неоспоримаДмитрий репутация неоспоримаДмитрий репутация неоспоримаДмитрий репутация неоспоримаДмитрий репутация неоспоримаДмитрий репутация неоспоримаДмитрий репутация неоспоримаДмитрий репутация неоспоримаДмитрий репутация неоспорима
По умолчанию

sergey bush,

СUE разметка:
Скрытый текст (вы должны зарегистрироваться или войти под своим логином):
У вас нет прав чтобы видеть скрытый текст, содержащейся здесь.


Код:
FILE "Side_1.flac" WAVE
  TRACK 01 AUDIO
    INDEX 01 00:00:00
  TRACK 02 AUDIO
    INDEX 01 04:01:63
  TRACK 03 AUDIO
    INDEX 01 07:27:56
  TRACK 04 AUDIO
    INDEX 01 11:11:63
  TRACK 05 AUDIO
    INDEX 01 15:13:49
FILE "Side_2.flac" WAVE
  TRACK 06 AUDIO
    INDEX 01 00:00:00
  TRACK 07 AUDIO
    INDEX 01 04:30:37
  TRACK 08 AUDIO
    INDEX 01 08:27:31
  TRACK 09 AUDIO
    INDEX 01 12:53:35
Названия песен впиши для себя сам, у меня глаза сегодня болят.
Дмитрий вне форума   Ответить с цитированием
2 пользователя(ей) сказали cпасибо:
Евгений80 (23.10.2015), Ведущий (20.10.2015)
Старый 23.10.2015, 11:30   #5
Глебушка
Местный
 
Аватар для Глебушка
 

Регистрация: 04.03.2013
Адрес: Россия город Саранск
Сообщений: 266
Сказал(а) спасибо: 815
Поблагодарили 224 раз(а) в 78 сообщениях
Глебушка за этого человека можно гордитсяГлебушка за этого человека можно гордитсяГлебушка за этого человека можно гордитсяГлебушка за этого человека можно гордитсяГлебушка за этого человека можно гордитсяГлебушка за этого человека можно гордитсяГлебушка за этого человека можно гордитсяГлебушка за этого человека можно гордитсяГлебушка за этого человека можно гордится
По умолчанию

REM GENRE Эстрада
REM DATE 1980
PERFORMER "Евгений Мартынов"
TITLE "Евгений Мартынов поёт свои песни LP"
FILE "Side_1.flac" WAVE
TRACK 01 AUDIO
TITLE "У Есенина день рождения"
INDEX 01 00:00:00
TRACK 02 AUDIO
TITLE "Свадебный вальс"
INDEX 01 04:01:63
TRACK 03 AUDIO
TITLE "Трава лебеда"
INDEX 01 07:27:56
TRACK 04 AUDIO
TITLE "Прости"
INDEX 01 11:11:63
TRACK 05 AUDIO
TITLE "Ах, как хочется влюбиться"
INDEX 01 15:13:49
FILE "Side_2.flac" WAVE
TRACK 06 AUDIO
TITLE "На качелях"
INDEX 01 00:00:00
TRACK 07 AUDIO
TITLE "Верую в тебя"
INDEX 01 04:30:37
TRACK 08 AUDIO
TITLE "Скажи мне, вишня"
INDEX 01 08:27:31
TRACK 09 AUDIO
TITLE "Натали"
INDEX 01 12:53:35
Глебушка вне форума   Ответить с цитированием
3 пользователя(ей) сказали cпасибо:
Евгений80 (23.10.2015), Дмитрий (23.10.2015), ogogun (21.09.2017)
Ответ

Закладки

Опции темы
Опции просмотра

Ваши права в разделе
Вы не можете создавать новые темы
Вы не можете отвечать в темах
Вы не можете прикреплять вложения
Вы не можете редактировать свои сообщения

BB коды Вкл.
Смайлы Вкл.
[IMG] код Вкл.
HTML код Выкл.

Быстрый переход


Часовой пояс GMT, время: 22:10.


Powered by vBulletin® Version 3.8.2
Copyright ©2000 - 2020, Jelsoft Enterprises Ltd. Перевод: zCarot
Rambler's Top100 Республика Татарстан - Каталог сайтов