Все Тут Online

   
Меню сайта:
Главная
Форум
Чат
- Online приложения:
- Игры
- Выбор стиля:
- FAQ
- Для начинающих

Вернуться   Все Тут Online > ОЦИФРОВКИ ВИНИЛА (Lossless) > Оцифровки ВИНИЛА пользователей нашего форума > Оцифровки Олега (Ник Pensioneer) (Pioneer PLX-1000 // Korg MR-2000S) ОЦИФРОВКИ ВИНИЛА В ФОРМАТЕ DSD

загрузка...
Ответ
 
Опции темы Опции просмотра
Старый 12.11.2017, 20:51   #1
Дмитрий
Music Group
 
Аватар для Дмитрий
 

Регистрация: 12.12.2008
Адрес: Москва прошлого тысячелетия.
Сообщений: 101,507
Сказал(а) спасибо: 23,087
Поблагодарили 101,655 раз(а) в 40,866 сообщениях
Дмитрий репутация неоспоримаДмитрий репутация неоспоримаДмитрий репутация неоспоримаДмитрий репутация неоспоримаДмитрий репутация неоспоримаДмитрий репутация неоспоримаДмитрий репутация неоспоримаДмитрий репутация неоспоримаДмитрий репутация неоспоримаДмитрий репутация неоспоримаДмитрий репутация неоспорима
Отправить сообщение для Дмитрий с помощью Skype™
По умолчанию [1/5.64 MHz] Оркестр Поля Мориа – Под музыку Вивальди - 1982 [DSD 128 (image+.cue) DSF] + WAVE 32 bit float/176,4 kHz]

загрузка...
[1/5.64 MHz] Оркестр Поля Мориа – Под музыку Вивальди - 1982 [DSD 128 (image+.cue) DSF]



Аудио кодек: DSD 128
Формат раздачи: 1/5,64 MHz
Устройство воспроизведения: Pioneer PLX-1000
Головка звукоснимателя: Benz Micro MC Silver
Предварительный усилитель: Vincent PHO-700
АЦП: Korg MR-2000S
Программа-оцифровщик: AudioGate
Обработка: Нет

Оцифровщик Олег (ник Pensioneer)

Tracklist

01 Оркестр Поля Мориа - Под музыку Вивальди
02 Оркестр Поля Мориа - Pulstar
03 Оркестр Поля Мориа - Любовь синего цвета
04 Оркестр Поля Мориа - Жаворонок
05 Оркестр Поля Мориа - Путь нам светит солнце
06 Оркестр Поля Мориа - Мама, мне грустно
07 Оркестр Поля Мориа - Приключение
08 Оркестр Поля Мориа - За тобой
09 Оркестр Поля Мориа - Прощай, любовь моя, прощай
10 Оркестр Поля Мориа - Эль Бимбо
11 Оркестр Поля Мориа - Пианино на волне
12 Оркестр Поля Мориа - Бабье лето
13 Оркестр Поля Мориа - Ты, музыка и я
14 Оркестр Поля Мориа - За любовью




Ссылка DSD 128:

Скрытый текст (вы должны зарегистрироваться или войти под своим логином):
У вас нет прав чтобы видеть скрытый текст, содержащейся здесь.


Ссылка WAVE 32 float/176,4 kHz:

Скрытый текст (вы должны зарегистрироваться или войти под своим логином):
У вас нет прав чтобы видеть скрытый текст, содержащейся здесь.

__________________










Ccылка на тему: Как скачивать с Яндекс диска!

Чтобы быстро скачать чужой опубликованный файл, сохраните его на свой Диск. На вашем Диске файл окажется мгновенно, а свои файлы вы всегда можете скачать без ограничений. Для этого нужно пройти регистрацию на https://mail.yandex.ru/

Уж лучше голодать, чем что попало есть... И лучше одному, чем вместе с кем попало.

Не работают ссылки, не надо флудить в теме. Сообщите ЗДЕСЬ!




Форум не против размещения раздач на других ресурсах. Скачал и не оставил комментарий - понизил релизёру мотивацию делиться с окружающими!

Команда Все Тут желает Вам приятного прослушивания!



Дмитрий вне форума   Ответить с цитированием
3 пользователя(ей) сказали cпасибо:
Владимир 1733 (13.11.2017), cthutq_1956 (13.11.2017), искатель (Вчера)
Старый 12.11.2017, 20:51   #2
Дмитрий
Music Group
 
Аватар для Дмитрий
 

Регистрация: 12.12.2008
Адрес: Москва прошлого тысячелетия.
Сообщений: 101,507
Сказал(а) спасибо: 23,087
Поблагодарили 101,655 раз(а) в 40,866 сообщениях
Дмитрий репутация неоспоримаДмитрий репутация неоспоримаДмитрий репутация неоспоримаДмитрий репутация неоспоримаДмитрий репутация неоспоримаДмитрий репутация неоспоримаДмитрий репутация неоспоримаДмитрий репутация неоспоримаДмитрий репутация неоспоримаДмитрий репутация неоспоримаДмитрий репутация неоспорима
Отправить сообщение для Дмитрий с помощью Skype™
По умолчанию

Код:
foobar2000 1.3.13 / Замер динамического диапазона (DR) 1.1.1
Дата отчёта:		2017-11-12 20:53:46

--------------------------------------------------------------------------------
Анализ:   Оркестр Поля Мориа / Под музыку Вивальди
--------------------------------------------------------------------------------

DR         Пики         RMS           Продолжительность трека
--------------------------------------------------------------------------------
DR16      -3.44 дБ   -24.12 дБ      3:05 01-Под музыку Вивальди
DR16      -4.55 дБ   -25.99 дБ      3:32 02-Pulstar
DR13      -6.02 дБ   -23.92 дБ      2:35 03-Любовь синего цвета
DR13      -7.52 дБ   -23.99 дБ      2:11 04-Жаворонок
DR12      -6.74 дБ   -21.56 дБ      3:37 05-Путь нам светит солнце
DR13      -7.37 дБ   -23.74 дБ      2:47 06-Мама, мне грустно
DR12      -7.42 дБ   -21.91 дБ      2:54 07-Приключение
DR12      -5.43 дБ   -22.24 дБ      3:08 08-За тобой
DR14      -6.26 дБ   -23.16 дБ      3:12 09-Прощай, любовь моя, прощай
DR13      -6.28 дБ   -22.58 дБ      2:33 10-Эль Бимбо
DR12      -6.77 дБ   -23.52 дБ      3:25 11-Пианино на волне
DR13      -8.34 дБ   -24.50 дБ      3:29 12-Бабье лето
DR14      -7.65 дБ   -24.45 дБ      2:22 13-Ты, музыка и я
DR15      -5.26 дБ   -23.07 дБ      3:34 14-За любовью
--------------------------------------------------------------------------------

Количество треков:	14
Реальные значения DR:	DR13

Частота:			5644800 Гц / Частота PCM:	44100 Гц
Каналов:			2
Разрядность: 		1
Битрейт:			11290 кбит/с
Кодек:			DSD128
================================================================================
__________________










Ccылка на тему: Как скачивать с Яндекс диска!

Чтобы быстро скачать чужой опубликованный файл, сохраните его на свой Диск. На вашем Диске файл окажется мгновенно, а свои файлы вы всегда можете скачать без ограничений. Для этого нужно пройти регистрацию на https://mail.yandex.ru/

Уж лучше голодать, чем что попало есть... И лучше одному, чем вместе с кем попало.

Не работают ссылки, не надо флудить в теме. Сообщите ЗДЕСЬ!




Форум не против размещения раздач на других ресурсах. Скачал и не оставил комментарий - понизил релизёру мотивацию делиться с окружающими!

Команда Все Тут желает Вам приятного прослушивания!



Дмитрий вне форума   Ответить с цитированием
Старый 12.11.2017, 21:22   #3
Дмитрий
Music Group
 
Аватар для Дмитрий
 

Регистрация: 12.12.2008
Адрес: Москва прошлого тысячелетия.
Сообщений: 101,507
Сказал(а) спасибо: 23,087
Поблагодарили 101,655 раз(а) в 40,866 сообщениях
Дмитрий репутация неоспоримаДмитрий репутация неоспоримаДмитрий репутация неоспоримаДмитрий репутация неоспоримаДмитрий репутация неоспоримаДмитрий репутация неоспоримаДмитрий репутация неоспоримаДмитрий репутация неоспоримаДмитрий репутация неоспоримаДмитрий репутация неоспоримаДмитрий репутация неоспорима
Отправить сообщение для Дмитрий с помощью Skype™
По умолчанию

Замер динамического диапазона для этой http://vsetutonline.com/forum/showthread.php?t=103850 оцифровки

Код:
foobar2000 1.3 / Dynamic Range Meter 1.1.1
log date: 2017-11-13 00:19:10

--------------------------------------------------------------------------------
Analyzed: ? / ?
--------------------------------------------------------------------------------

DR         Peak         RMS     Duration Track
--------------------------------------------------------------------------------
DR13      -6.29 dB   -21.02 dB      3:02 ?-1. Под музыку Вивальди
DR15      -4.93 dB   -23.29 dB      3:29 ?-2. Pulstar
DR13      -5.18 dB   -20.48 dB      2:31 ?-3. Любовь синего цвета
DR13      -4.61 dB   -21.02 dB      2:09 ?-4. Жаворонок
DR12      -3.79 dB   -18.43 dB      3:33 ?-5. Пусть нам светит солнце
DR13      -3.47 dB   -20.55 dB      2:46 ?-6. Мама, мне грустно
DR12      -4.34 dB   -18.71 dB      2:46 ?-7. Приключение
--------------------------------------------------------------------------------

Number of tracks:  7
Official DR value: DR13

Samplerate:        192000 Hz
Channels:          2
Bits per sample:   24
Bitrate:           5011 kbps
Codec:             FLAC
================================================================================


foobar2000 1.3 / Dynamic Range Meter 1.1.1
log date: 2017-11-13 00:20:38

--------------------------------------------------------------------------------
Analyzed: ? / ?
--------------------------------------------------------------------------------

DR         Peak         RMS     Duration Track
--------------------------------------------------------------------------------
DR12      -4.98 dB   -18.72 dB      3:06 ?-1. За тобой
DR13      -3.90 dB   -19.85 dB      3:10 ?-2. Прощай, любовь моя, прощай
DR12      -2.35 dB   -19.37 dB      2:30 ?-3. Эль Бимбо
DR12      -4.75 dB   -19.84 dB      3:24 ?-4. Пианино на волне
DR13      -4.01 dB   -20.64 dB      3:26 ?-5. Бабье лето
DR14      -3.46 dB   -20.63 dB      2:20 ?-6. Ты, музыка и я
DR15      -0.33 dB   -19.15 dB      3:28 ?-7. За любовью
--------------------------------------------------------------------------------

Number of tracks:  7
Official DR value: DR13

Samplerate:        192000 Hz
Channels:          2
Bits per sample:   24
Bitrate:           5049 kbps
Codec:             FLAC
================================================================================
__________________










Ccылка на тему: Как скачивать с Яндекс диска!

Чтобы быстро скачать чужой опубликованный файл, сохраните его на свой Диск. На вашем Диске файл окажется мгновенно, а свои файлы вы всегда можете скачать без ограничений. Для этого нужно пройти регистрацию на https://mail.yandex.ru/

Уж лучше голодать, чем что попало есть... И лучше одному, чем вместе с кем попало.

Не работают ссылки, не надо флудить в теме. Сообщите ЗДЕСЬ!




Форум не против размещения раздач на других ресурсах. Скачал и не оставил комментарий - понизил релизёру мотивацию делиться с окружающими!

Команда Все Тут желает Вам приятного прослушивания!



Дмитрий вне форума   Ответить с цитированием
Старый 13.11.2017, 08:22   #4
cthutq_1956
VIP
 
Аватар для cthutq_1956
 

Регистрация: 17.11.2016
Адрес: Челябинск
Сообщений: 2,339
Сказал(а) спасибо: 3,499
Поблагодарили 881 раз(а) в 685 сообщениях
cthutq_1956 репутация неоспоримаcthutq_1956 репутация неоспоримаcthutq_1956 репутация неоспоримаcthutq_1956 репутация неоспоримаcthutq_1956 репутация неоспоримаcthutq_1956 репутация неоспоримаcthutq_1956 репутация неоспоримаcthutq_1956 репутация неоспоримаcthutq_1956 репутация неоспоримаcthutq_1956 репутация неоспоримаcthutq_1956 репутация неоспорима
По умолчанию

Достойный ,приличный звук ,сборник хорош ещё тем что все хиты крутышки собраны здесь ,спасибо Олегу за труды ,Дмитрий от всей души всем спасибо.
cthutq_1956 вне форума   Ответить с цитированием
Ответ

Закладки

Опции темы
Опции просмотра

Ваши права в разделе
Вы не можете создавать новые темы
Вы не можете отвечать в темах
Вы не можете прикреплять вложения
Вы не можете редактировать свои сообщения

BB коды Вкл.
Смайлы Вкл.
[IMG] код Вкл.
HTML код Выкл.

Быстрый переход


Часовой пояс GMT, время: 11:34.


Powered by vBulletin® Version 3.8.2
Copyright ©2000 - 2017, Jelsoft Enterprises Ltd. Перевод: zCarot
Rambler's Top100 Республика Татарстан - Каталог сайтов