Все Тут Online

   
Меню сайта:
Главная
Форум
Чат
- Online приложения:
- Игры
- Выбор стиля:
- FAQ
- Для начинающих

Вернуться   Все Тут Online > ОЦИФРОВКИ ВИНИЛА (Lossless) > Оцифровки ВИНИЛА пользователей нашего форума > Оцифровки Олега (Ник Pensioneer) (Pioneer PLX-1000 // Korg MR-2000S) ОЦИФРОВКИ ВИНИЛА В ФОРМАТЕ DSD

загрузка...
Ответ
 
Опции темы Опции просмотра
Старый 13.11.2017, 09:52   #1
Дмитрий
Music Group
 
Аватар для Дмитрий
 

Регистрация: 12.12.2008
Адрес: Москва прошлого тысячелетия.
Сообщений: 101,507
Сказал(а) спасибо: 23,087
Поблагодарили 101,655 раз(а) в 40,866 сообщениях
Дмитрий репутация неоспоримаДмитрий репутация неоспоримаДмитрий репутация неоспоримаДмитрий репутация неоспоримаДмитрий репутация неоспоримаДмитрий репутация неоспоримаДмитрий репутация неоспоримаДмитрий репутация неоспоримаДмитрий репутация неоспоримаДмитрий репутация неоспоримаДмитрий репутация неоспорима
Отправить сообщение для Дмитрий с помощью Skype™
По умолчанию [1/5.64 MHz] Фаусто Папетти ‎[Fausto Papetti] [Мелодия ‎– С 60 21045 005] - 1985 [DSD 128 (image+.cue) DSF] + WAVE 32 bit float/176,4 kHz]

загрузка...
[1/5.64 MHz] Фаусто Папетти ‎[Fausto Papetti] – Фаусто Папетти и его оркестр [Мелодия ‎– С 60 21045 005] - 1985 [DSD 128 (image+.cue) DSF]



Аудио кодек: DSD 128
Формат раздачи: 1/5,64 MHz
Устройство воспроизведения: Pioneer PLX-1000
Головка звукоснимателя: Benz Micro MC Silver
Предварительный усилитель: Vincent PHO-700
АЦП: Korg MR-2000S
Программа-оцифровщик: AudioGate
Обработка: Нет

Оцифровщик Олег (ник Pensioneer)

Tracklist

01 Оркестр Фаусто Папетти - Первая любовь
02 Оркестр Фаусто Папетти - Райская мелодия
03 Оркестр Фаусто Папетти - Память
04 Оркестр Фаусто Папетти - Пикник
05 Оркестр Фаусто Папетти - Тема Артура
06 Оркестр Фаусто Папетти - Блюз (Хилл Стрит)
07 Оркестр Фаусто Папетти - Действительность
08 Оркестр Фаусто Папетти - Сердце
09 Оркестр Фаусто Папетти - Солнечный берег
10 Оркестр Фаусто Папетти - Как хотелось бы


Licensed From – Ariola Eurodisc GmbH



Ссылка DSD 128:

Скрытый текст (вы должны зарегистрироваться или войти под своим логином):
У вас нет прав чтобы видеть скрытый текст, содержащейся здесь.


Ссылка WAVE 32 float/176,4 kHz:

Скрытый текст (вы должны зарегистрироваться или войти под своим логином):
У вас нет прав чтобы видеть скрытый текст, содержащейся здесь.

__________________










Ccылка на тему: Как скачивать с Яндекс диска!

Чтобы быстро скачать чужой опубликованный файл, сохраните его на свой Диск. На вашем Диске файл окажется мгновенно, а свои файлы вы всегда можете скачать без ограничений. Для этого нужно пройти регистрацию на https://mail.yandex.ru/

Уж лучше голодать, чем что попало есть... И лучше одному, чем вместе с кем попало.

Не работают ссылки, не надо флудить в теме. Сообщите ЗДЕСЬ!




Форум не против размещения раздач на других ресурсах. Скачал и не оставил комментарий - понизил релизёру мотивацию делиться с окружающими!

Команда Все Тут желает Вам приятного прослушивания!



Дмитрий вне форума   Ответить с цитированием
Пользователь сказал cпасибо:
cthutq_1956 (13.11.2017)
Старый 13.11.2017, 09:53   #2
Дмитрий
Music Group
 
Аватар для Дмитрий
 

Регистрация: 12.12.2008
Адрес: Москва прошлого тысячелетия.
Сообщений: 101,507
Сказал(а) спасибо: 23,087
Поблагодарили 101,655 раз(а) в 40,866 сообщениях
Дмитрий репутация неоспоримаДмитрий репутация неоспоримаДмитрий репутация неоспоримаДмитрий репутация неоспоримаДмитрий репутация неоспоримаДмитрий репутация неоспоримаДмитрий репутация неоспоримаДмитрий репутация неоспоримаДмитрий репутация неоспоримаДмитрий репутация неоспоримаДмитрий репутация неоспорима
Отправить сообщение для Дмитрий с помощью Skype™
По умолчанию

Код:
foobar2000 1.3.13 / Замер динамического диапазона (DR) 1.1.1
Дата отчёта:		2017-11-12 21:28:51

--------------------------------------------------------------------------------
Анализ:   Оркестр Фаусто  Папетти / ?
--------------------------------------------------------------------------------

DR         Пики         RMS           Продолжительность трека
--------------------------------------------------------------------------------
DR13      -6.39 дБ   -22.35 дБ      3:19 01-Первая любовь
DR16      -6.01 дБ   -24.64 дБ      3:19 02-Райская мелодия
DR11      -8.16 дБ   -23.50 дБ      3:35 03-Память
DR16      -6.63 дБ   -24.85 дБ      3:22 04-Пикник
DR14      -6.91 дБ   -24.20 дБ      4:09 05-Тема Артура
DR14      -6.25 дБ   -24.44 дБ      3:27 06-Блюз (Хилл Стрит)
DR14      -3.30 дБ   -23.78 дБ      4:18 07-Действительность
DR14      -7.48 дБ   -23.30 дБ      3:30 08-Сердце
DR12      -6.40 дБ   -23.88 дБ      3:32 09-Солнечный берег
DR13      -7.74 дБ   -24.00 дБ      3:33 10-Как хотелось бы
--------------------------------------------------------------------------------

Количество треков:	10
Реальные значения DR:	DR14

Частота:			5644800 Гц / Частота PCM:	44100 Гц
Каналов:			2
Разрядность: 		1
Битрейт:			11290 кбит/с
Кодек:			DSD128
================================================================================
__________________










Ccылка на тему: Как скачивать с Яндекс диска!

Чтобы быстро скачать чужой опубликованный файл, сохраните его на свой Диск. На вашем Диске файл окажется мгновенно, а свои файлы вы всегда можете скачать без ограничений. Для этого нужно пройти регистрацию на https://mail.yandex.ru/

Уж лучше голодать, чем что попало есть... И лучше одному, чем вместе с кем попало.

Не работают ссылки, не надо флудить в теме. Сообщите ЗДЕСЬ!




Форум не против размещения раздач на других ресурсах. Скачал и не оставил комментарий - понизил релизёру мотивацию делиться с окружающими!

Команда Все Тут желает Вам приятного прослушивания!



Дмитрий вне форума   Ответить с цитированием
Старый 13.11.2017, 12:25   #3
cthutq_1956
VIP
 
Аватар для cthutq_1956
 

Регистрация: 17.11.2016
Адрес: Челябинск
Сообщений: 2,339
Сказал(а) спасибо: 3,499
Поблагодарили 881 раз(а) в 685 сообщениях
cthutq_1956 репутация неоспоримаcthutq_1956 репутация неоспоримаcthutq_1956 репутация неоспоримаcthutq_1956 репутация неоспоримаcthutq_1956 репутация неоспоримаcthutq_1956 репутация неоспоримаcthutq_1956 репутация неоспоримаcthutq_1956 репутация неоспоримаcthutq_1956 репутация неоспоримаcthutq_1956 репутация неоспоримаcthutq_1956 репутация неоспорима
По умолчанию

Всё прекрасно, качество диска прекрасное ,звук объёмный ,прозрачный ,лёгкий лепота ,это лицензии ,интересно как наши будут звучать , Спасибо Олег за твои золотые руки и доброе меломанское сердце ,здоровья тебе без потерь. Дмитрий вам спасибо за труды праведные.
cthutq_1956 вне форума   Ответить с цитированием
Пользователь сказал cпасибо:
Дмитрий (13.11.2017)
Ответ

Закладки

Опции темы
Опции просмотра

Ваши права в разделе
Вы не можете создавать новые темы
Вы не можете отвечать в темах
Вы не можете прикреплять вложения
Вы не можете редактировать свои сообщения

BB коды Вкл.
Смайлы Вкл.
[IMG] код Вкл.
HTML код Выкл.

Быстрый переход


Часовой пояс GMT, время: 11:33.


Powered by vBulletin® Version 3.8.2
Copyright ©2000 - 2017, Jelsoft Enterprises Ltd. Перевод: zCarot
Rambler's Top100 Республика Татарстан - Каталог сайтов