Все Тут Online

   
Меню сайта:
Главная
Форум
Чат
- Online приложения:
- Игры
- Выбор стиля:
- FAQ
- Для начинающих

Вернуться   Все Тут Online > CD (Компакт диски) Lossless - МУЗЫКА БЕЗ ПОТЕРИ КАЧЕСТВА > ПОП МУЗЫКА, Eurodance, Disco (Lossless) > Отечественная Поп музыка (lossless)

загрузка...
Ответ
 
Опции темы Опции просмотра
Старый 10.09.2017, 04:41   #1
tt1072
Местный
 
Аватар для tt1072
 

Регистрация: 17.08.2014
Адрес: ВKO Семипалатинск
Сообщений: 413
Сказал(а) спасибо: 285
Поблагодарили 988 раз(а) в 273 сообщениях
tt1072 репутация неоспоримаtt1072 репутация неоспоримаtt1072 репутация неоспоримаtt1072 репутация неоспоримаtt1072 репутация неоспоримаtt1072 репутация неоспоримаtt1072 репутация неоспоримаtt1072 репутация неоспоримаtt1072 репутация неоспоримаtt1072 репутация неоспоримаtt1072 репутация неоспорима
По умолчанию группа Случайная встреча - Лучший город Земли(2001)

загрузка...

Жанр: Поп,Народные
Носитель: CD
Страна-производитель диска (релиза): Россия
Год издания: 2001
Издатель (лейбл): Парк Звезд
Альбом: Лучший город земли
Страна исполнителя (группы): Россия
Аудио кодек: Ape
Тип рипа: image+.cue
Битрейт аудио: lossless



01. Лучший город земли
02. Тополя
03. Червона рута
04. Синий лён
05. Главное ребята сердцем не стареть
06. А снег идёт
07. Палуба
08. Моряк вразвалочку
09. Первая любовь
10. Горная дорога
11. Случайность
12. Воскресение
13. Алёшкина любовь
14. Снежинка
15. По Ангаре
16. Костры горят далёкие
17. Ой,ты,рожь
18. Течёт Волга

Код:
Exact Audio Copy V1.1 from 23. June 2015

Отчёт EAC об извлечении, выполненном 8. сентября 2016, 22:12

Случайная встреча / Лучший город Земли

Дисковод: ASUS    DRW-24D5MT   Adapter: 1  ID: 0

Режим чтения                 : Достоверность
Использование точного потока : Да
Отключение кэша аудио        : Да
Использование указателей C2  : Нет

Коррекция смещения при чтении                     : 6
Способность читать области Lead-in и Lead-out     : Нет
Заполнение пропущенных сэмплов тишиной            : Да
Удаление блоков с тишиной в начале и конце        : Нет
При вычислениях CRC использовались нулевые сэмплы : Да
Интерфейс                                         : Установленный внешний ASPI-интерфейс

Выходной формат : Внутренние WAV-операции
Формат сэмплов  : 44.100 Гц; 16 бит; стерео


TOC извлечённого CD

     Трек |   Старт  | Длительность | Начальный сектор | Конечный сектор 
    ---------------------------------------------------------------------
       1  |  0:00.00 |    2:53.61   |           0      |      13035      
       2  |  2:53.61 |    4:28.39   |       13036      |      33174      
       3  |  7:22.25 |    3:50.11   |       33175      |      50435      
       4  | 11:12.36 |    4:03.67   |       50436      |      68727      
       5  | 15:16.28 |    3:17.23   |       68728      |      83525      
       6  | 18:33.51 |    2:16.30   |       83526      |      93755      
       7  | 20:50.06 |    3:14.48   |       93756      |     108353      
       8  | 24:04.54 |    3:26.09   |      108354      |     123812      
       9  | 27:30.63 |    4:26.41   |      123813      |     143803      
      10  | 31:57.29 |    2:31.62   |      143804      |     155190      
      11  | 34:29.16 |    4:15.36   |      155191      |     174351      
      12  | 38:44.52 |    2:43.64   |      174352      |     186640      
      13  | 41:28.41 |    3:34.33   |      186641      |     202723      
      14  | 45:02.74 |    2:16.29   |      202724      |     212952      
      15  | 47:19.28 |    2:27.34   |      212953      |     224011      
      16  | 49:46.62 |    2:24.54   |      224012      |     234865      
      17  | 52:11.41 |    3:42.01   |      234866      |     251516      
      18  | 55:53.42 |    5:12.65   |      251517      |     274981      


Характеристики диапазона извлечения и сообщения об ошибках

Выбранный диапазон

     Имя файла C:\Documents and Settings\User\Мои документы\Случайная встреча - Лучший город Земли.wav

     Пиковый уровень 100.0 %
     Скорость извлечения 5.1 X
     Качество диапазона 99.9 %
     CRC копии 5E5993AE
     Копирование... OK

Ошибок не произошло

 
AccurateRip: сводка
 
Трек  1  отсутствует в базе данных
Трек  2  отсутствует в базе данных
Трек  3  отсутствует в базе данных
Трек  4  отсутствует в базе данных
Трек  5  отсутствует в базе данных
Трек  6  отсутствует в базе данных
Трек  7  отсутствует в базе данных
Трек  8  отсутствует в базе данных
Трек  9  отсутствует в базе данных
Трек 10  отсутствует в базе данных
Трек 11  отсутствует в базе данных
Трек 12  отсутствует в базе данных
Трек 13  отсутствует в базе данных
Трек 14  отсутствует в базе данных
Трек 15  отсутствует в базе данных
Трек 16  отсутствует в базе данных
Трек 17  отсутствует в базе данных
Трек 18  отсутствует в базе данных
 
Ни одного трека нет в базе AccurateRip

Конец отчёта


==== Контрольная сумма отчёта 4B17ADA277EFE24B457E013C896480C8213E7E4677E2DD2844679A27496DD882 ====
Скрытый текст (вы должны зарегистрироваться или войти под своим логином):
У вас нет прав чтобы видеть скрытый текст, содержащейся здесь.

Последний раз редактировалось tt1072; 10.09.2017 в 04:43.
tt1072 вне форума   Ответить с цитированием
5 пользователя(ей) сказали cпасибо:
film (Сегодня), Ionel (10.09.2017), nls (10.09.2017), single (10.09.2017), victor1953 (16.09.2017)
Ответ

Закладки

Опции темы
Опции просмотра

Ваши права в разделе
Вы не можете создавать новые темы
Вы не можете отвечать в темах
Вы не можете прикреплять вложения
Вы не можете редактировать свои сообщения

BB коды Вкл.
Смайлы Вкл.
[IMG] код Вкл.
HTML код Выкл.

Быстрый переход


Часовой пояс GMT, время: 21:52.


Powered by vBulletin® Version 3.8.2
Copyright ©2000 - 2017, Jelsoft Enterprises Ltd. Перевод: zCarot
Rambler's Top100 Республика Татарстан - Каталог сайтов