Все Тут Online

   
Меню сайта:
Главная
Форум
Чат
- Online приложения:
- Игры
- Выбор стиля:
- FAQ
- Для начинающих

Вернуться   Все Тут Online > МАГНИТИЗДАТ (Оцифровки Кассет и Бобин) (lossless) > В гостях у Бориса 63 (Оцифровки с бобин и с кассет) > Рок Музыка (Lossless)

загрузка...
Ответ
 
Опции темы Опции просмотра
Старый 10.09.2017, 09:00   #1
Борис 63
Супермодератор. Смотрящий за форумом. Модератор разделов оцифровок.
 
Аватар для Борис 63
 

Регистрация: 01.02.2010
Адрес: СССР Москва
Сообщений: 12,212
Сказал(а) спасибо: 6,228
Поблагодарили 37,863 раз(а) в 6,067 сообщениях
Борис 63 репутация неоспоримаБорис 63 репутация неоспоримаБорис 63 репутация неоспоримаБорис 63 репутация неоспоримаБорис 63 репутация неоспоримаБорис 63 репутация неоспоримаБорис 63 репутация неоспоримаБорис 63 репутация неоспоримаБорис 63 репутация неоспоримаБорис 63 репутация неоспоримаБорис 63 репутация неоспорима
По умолчанию (24/96) REO Speedwagon - The Earth, A Small Man, His Dog And A Chicken (1990) + Iggy Pop - Brick By Brick (1990) (lossless)

загрузка...


Оцифровка с катушки

Подающий аппарат - на фото.

Формат записи - 4/19 .


Коробка не подписана , трек-лист утерян.

Нужно опознать и оформить.


REO Speedwagon - The Earth, A Small Man, His Dog And A Chicken (1990)

01 REO Speedwagon - Love Is A Rock
02 REO Speedwagon - The Heart Survives
03 REO Speedwagon - Live It Up
04 REO Speedwagon - All Heaven Broke Loose
05 REO Speedwagon - Love In The Future
06 REO Speedwagon - Half Way
07 REO Speedwagon - Love To Hate
08 REO Speedwagon - You Won't See Me
09 REO Speedwagon - Can't Lie To My Heart
10 REO Speedwagon - L.I.A.R
11 REO Speedwagon - Go For Broke


Iggy Pop - Brick By Brick (1990)

01 Iggy Pop - Home
02 Iggy Pop - Main Street Eyes
03 Iggy Pop - I Won't Crap Out
04 Iggy Pop - Candy
05 Iggy Pop - Butt Town
06 Iggy Pop - The Undefeated
07 Iggy Pop - Moonlight Lady
08 Iggy Pop - Something Wild
09 Iggy Pop - Neon Forest
10 Iggy Pop - Starry Night
11 Iggy Pop - Pussy Power


Ccылки FLAC + CUE:

1 ст.

Скрытый текст (вы должны зарегистрироваться или войти под своим логином):
У вас нет прав чтобы видеть скрытый текст, содержащейся здесь.


2 ст.

Скрытый текст (вы должны зарегистрироваться или войти под своим логином):
У вас нет прав чтобы видеть скрытый текст, содержащейся здесь.
__________________
Ccылка на тему: Как скачивать с Яндекс диска!

Чтобы быстро скачать чужой опубликованный файл, сохраните его на свой Диск. На вашем Диске файл окажется мгновенно, а свои файлы вы всегда можете скачать без ограничений.

Последний раз редактировалось Борис 63; 10.09.2017 в 09:14.
Борис 63 вне форума   Ответить с цитированием
Старый 10.09.2017, 10:22   #2
Дмитрий
Music Group
 
Аватар для Дмитрий
 

Регистрация: 12.12.2008
Адрес: Москва прошлого тысячелетия.
Сообщений: 101,342
Сказал(а) спасибо: 23,072
Поблагодарили 101,446 раз(а) в 40,808 сообщениях
Дмитрий репутация неоспоримаДмитрий репутация неоспоримаДмитрий репутация неоспоримаДмитрий репутация неоспоримаДмитрий репутация неоспоримаДмитрий репутация неоспоримаДмитрий репутация неоспоримаДмитрий репутация неоспоримаДмитрий репутация неоспоримаДмитрий репутация неоспоримаДмитрий репутация неоспорима
Отправить сообщение для Дмитрий с помощью Skype™
По умолчанию

спасибо Борь!
REO Speedwagon и Iggy Pop

оформлю.
__________________










Ccылка на тему: Как скачивать с Яндекс диска!

Чтобы быстро скачать чужой опубликованный файл, сохраните его на свой Диск. На вашем Диске файл окажется мгновенно, а свои файлы вы всегда можете скачать без ограничений. Для этого нужно пройти регистрацию на https://mail.yandex.ru/

Если вам нечего делать, то не надо делать это у нас на форуме!!!
Водитель в России должен уметь обруливать ямы, уворачиваться от обруливающих ямы, от лихачей, пешеходов и долбо...бов...


Не работают ссылки, не надо флудить в теме. Сообщите ЗДЕСЬ!




Форум не против размещения раздач на других ресурсах. Скачал и не оставил комментарий - понизил релизёру мотивацию делиться с окружающими!

Команда Все Тут желает Вам приятного прослушивания!



Дмитрий вне форума   Ответить с цитированием
Пользователь сказал cпасибо:
Борис 63 (10.09.2017)
Старый 10.09.2017, 10:41   #3
Дмитрий
Music Group
 
Аватар для Дмитрий
 

Регистрация: 12.12.2008
Адрес: Москва прошлого тысячелетия.
Сообщений: 101,342
Сказал(а) спасибо: 23,072
Поблагодарили 101,446 раз(а) в 40,808 сообщениях
Дмитрий репутация неоспоримаДмитрий репутация неоспоримаДмитрий репутация неоспоримаДмитрий репутация неоспоримаДмитрий репутация неоспоримаДмитрий репутация неоспоримаДмитрий репутация неоспоримаДмитрий репутация неоспоримаДмитрий репутация неоспоримаДмитрий репутация неоспоримаДмитрий репутация неоспорима
Отправить сообщение для Дмитрий с помощью Skype™
По умолчанию

REO Speedwagon - The Earth, A Small Man, His Dog And A Chicken (1990).cue


Код:
REM GENRE "Classic Rock / AOR"
REM DATE 1990
REM COMMENT "Оцифровка - Борис 63"
TITLE "The Earth, A Small Man, His Dog And A Chicken"
PERFORMER "REO Speedwagon"
FILE "1.flac" WAVE
  TRACK 01 AUDIO
TITLE "Love Is A Rock"
PERFORMER "REO Speedwagon"
    INDEX 01 00:03:00
  TRACK 02 AUDIO
TITLE "The Heart Survives"
PERFORMER "REO Speedwagon"
    INDEX 01 05:43:31
  TRACK 03 AUDIO
TITLE "Live It Up"
PERFORMER "REO Speedwagon"
    INDEX 01 10:36:20
  TRACK 04 AUDIO
TITLE "All Heaven Broke Loose"
PERFORMER "REO Speedwagon"
    INDEX 01 14:37:66
  TRACK 05 AUDIO
TITLE "Love In The Future"
PERFORMER "REO Speedwagon"
    INDEX 01 18:49:41
  TRACK 06 AUDIO
TITLE "Half Way"
PERFORMER "REO Speedwagon"
    INDEX 01 23:26:10
  TRACK 07 AUDIO
TITLE "Love To Hate"
PERFORMER "REO Speedwagon"
    INDEX 01 27:46:14
  TRACK 08 AUDIO
TITLE "You Won't See Me"
PERFORMER "REO Speedwagon"
    INDEX 01 31:55:69
  TRACK 09 AUDIO
TITLE "Can't Lie To My Heart"
PERFORMER "REO Speedwagon"
    INDEX 01 35:19:39
  TRACK 10 AUDIO
TITLE "L.I.A.R"
PERFORMER "REO Speedwagon"
    INDEX 01 39:56:25
  TRACK 11 AUDIO
TITLE "Go For Broke"
PERFORMER "REO Speedwagon"
    INDEX 01 43:10:01
__________________










Ccылка на тему: Как скачивать с Яндекс диска!

Чтобы быстро скачать чужой опубликованный файл, сохраните его на свой Диск. На вашем Диске файл окажется мгновенно, а свои файлы вы всегда можете скачать без ограничений. Для этого нужно пройти регистрацию на https://mail.yandex.ru/

Если вам нечего делать, то не надо делать это у нас на форуме!!!
Водитель в России должен уметь обруливать ямы, уворачиваться от обруливающих ямы, от лихачей, пешеходов и долбо...бов...


Не работают ссылки, не надо флудить в теме. Сообщите ЗДЕСЬ!




Форум не против размещения раздач на других ресурсах. Скачал и не оставил комментарий - понизил релизёру мотивацию делиться с окружающими!

Команда Все Тут желает Вам приятного прослушивания!



Дмитрий вне форума   Ответить с цитированием
Старый 10.09.2017, 10:41   #4
Борис 63
Супермодератор. Смотрящий за форумом. Модератор разделов оцифровок.
 
Аватар для Борис 63
 

Регистрация: 01.02.2010
Адрес: СССР Москва
Сообщений: 12,212
Сказал(а) спасибо: 6,228
Поблагодарили 37,863 раз(а) в 6,067 сообщениях
Борис 63 репутация неоспоримаБорис 63 репутация неоспоримаБорис 63 репутация неоспоримаБорис 63 репутация неоспоримаБорис 63 репутация неоспоримаБорис 63 репутация неоспоримаБорис 63 репутация неоспоримаБорис 63 репутация неоспоримаБорис 63 репутация неоспоримаБорис 63 репутация неоспоримаБорис 63 репутация неоспорима
По умолчанию

Дмитрий,

Спасибо.

Это попалась катушка в двухдорогих записях - качество вроде не плохое - решил сделать.

Если исполнители разные , наверное нужно будет сделать 2 темы.
__________________
Ccылка на тему: Как скачивать с Яндекс диска!

Чтобы быстро скачать чужой опубликованный файл, сохраните его на свой Диск. На вашем Диске файл окажется мгновенно, а свои файлы вы всегда можете скачать без ограничений.
Борис 63 вне форума   Ответить с цитированием
Старый 10.09.2017, 10:56   #5
Дмитрий
Music Group
 
Аватар для Дмитрий
 

Регистрация: 12.12.2008
Адрес: Москва прошлого тысячелетия.
Сообщений: 101,342
Сказал(а) спасибо: 23,072
Поблагодарили 101,446 раз(а) в 40,808 сообщениях
Дмитрий репутация неоспоримаДмитрий репутация неоспоримаДмитрий репутация неоспоримаДмитрий репутация неоспоримаДмитрий репутация неоспоримаДмитрий репутация неоспоримаДмитрий репутация неоспоримаДмитрий репутация неоспоримаДмитрий репутация неоспоримаДмитрий репутация неоспоримаДмитрий репутация неоспорима
Отправить сообщение для Дмитрий с помощью Skype™
По умолчанию

Iggy Pop - Brick By Brick (1990).cue

Код:
REM GENRE "Rock, Punk"
REM DATE 1990
REM COMMENT "Оцифровка - Борис 63"
TITLE "Brick By Brick"
PERFORMER "Iggy Pop"
FILE "2.flac" WAVE
  TRACK 01 AUDIO
TITLE "Home"
PERFORMER "Iggy Pop"
    INDEX 01 00:04:46
  TRACK 02 AUDIO
TITLE "Main Street Eyes"
PERFORMER "Iggy Pop"
    INDEX 01 04:07:71
  TRACK 03 AUDIO
TITLE "I Won't Crap Out"
PERFORMER "Iggy Pop"
    INDEX 01 07:49:55
  TRACK 04 AUDIO
TITLE "Candy"
PERFORMER "Iggy Pop"
    INDEX 01 11:51:72
  TRACK 05 AUDIO
TITLE "Butt Town"
PERFORMER "Iggy Pop"
    INDEX 01 16:06:58
  TRACK 06 AUDIO
TITLE "The Undefeated"
PERFORMER "Iggy Pop"
    INDEX 01 19:41:06
  TRACK 07 AUDIO
TITLE "Moonlight Lady"
PERFORMER "Iggy Pop"
    INDEX 01 24:46:10
  TRACK 08 AUDIO
TITLE "Something Wild"
PERFORMER "Iggy Pop"
    INDEX 01 28:17:56
  TRACK 09 AUDIO
TITLE "Neon Forest"
PERFORMER "Iggy Pop"
    INDEX 01 32:16:43
  TRACK 10 AUDIO
TITLE "Starry Night"
PERFORMER "Iggy Pop"
INDEX 01 39:25:50
  TRACK 11 AUDIO
TITLE "Pussy Power"
PERFORMER "Iggy Pop"
    INDEX 01 43:23:54
__________________










Ccылка на тему: Как скачивать с Яндекс диска!

Чтобы быстро скачать чужой опубликованный файл, сохраните его на свой Диск. На вашем Диске файл окажется мгновенно, а свои файлы вы всегда можете скачать без ограничений. Для этого нужно пройти регистрацию на https://mail.yandex.ru/

Если вам нечего делать, то не надо делать это у нас на форуме!!!
Водитель в России должен уметь обруливать ямы, уворачиваться от обруливающих ямы, от лихачей, пешеходов и долбо...бов...


Не работают ссылки, не надо флудить в теме. Сообщите ЗДЕСЬ!




Форум не против размещения раздач на других ресурсах. Скачал и не оставил комментарий - понизил релизёру мотивацию делиться с окружающими!

Команда Все Тут желает Вам приятного прослушивания!



Дмитрий вне форума   Ответить с цитированием
Старый 10.09.2017, 11:23   #6
Дмитрий
Music Group
 
Аватар для Дмитрий
 

Регистрация: 12.12.2008
Адрес: Москва прошлого тысячелетия.
Сообщений: 101,342
Сказал(а) спасибо: 23,072
Поблагодарили 101,446 раз(а) в 40,808 сообщениях
Дмитрий репутация неоспоримаДмитрий репутация неоспоримаДмитрий репутация неоспоримаДмитрий репутация неоспоримаДмитрий репутация неоспоримаДмитрий репутация неоспоримаДмитрий репутация неоспоримаДмитрий репутация неоспоримаДмитрий репутация неоспоримаДмитрий репутация неоспоримаДмитрий репутация неоспорима
Отправить сообщение для Дмитрий с помощью Skype™
По умолчанию

Цитата:
Сообщение от Борис 63 Посмотреть сообщение
качество вроде не плохое - решил сделать.
так и есть.
звучит очень хорошо!



__________________










Ccылка на тему: Как скачивать с Яндекс диска!

Чтобы быстро скачать чужой опубликованный файл, сохраните его на свой Диск. На вашем Диске файл окажется мгновенно, а свои файлы вы всегда можете скачать без ограничений. Для этого нужно пройти регистрацию на https://mail.yandex.ru/

Если вам нечего делать, то не надо делать это у нас на форуме!!!
Водитель в России должен уметь обруливать ямы, уворачиваться от обруливающих ямы, от лихачей, пешеходов и долбо...бов...


Не работают ссылки, не надо флудить в теме. Сообщите ЗДЕСЬ!




Форум не против размещения раздач на других ресурсах. Скачал и не оставил комментарий - понизил релизёру мотивацию делиться с окружающими!

Команда Все Тут желает Вам приятного прослушивания!



Дмитрий вне форума   Ответить с цитированием
Пользователь сказал cпасибо:
Борис 63 (10.09.2017)
Старый 10.09.2017, 11:25   #7
Дмитрий
Music Group
 
Аватар для Дмитрий
 

Регистрация: 12.12.2008
Адрес: Москва прошлого тысячелетия.
Сообщений: 101,342
Сказал(а) спасибо: 23,072
Поблагодарили 101,446 раз(а) в 40,808 сообщениях
Дмитрий репутация неоспоримаДмитрий репутация неоспоримаДмитрий репутация неоспоримаДмитрий репутация неоспоримаДмитрий репутация неоспоримаДмитрий репутация неоспоримаДмитрий репутация неоспоримаДмитрий репутация неоспоримаДмитрий репутация неоспоримаДмитрий репутация неоспоримаДмитрий репутация неоспорима
Отправить сообщение для Дмитрий с помощью Skype™
По умолчанию

Код:
Dynamic Range Meter 1.1.1
log date: 2017-09-10 14:24:27

--------------------------------------------------------------------------------
Analyzed: REO Speedwagon / The Earth, A Small Man, His Dog And A Chicken
--------------------------------------------------------------------------------

DR         Peak         RMS     Duration Track
--------------------------------------------------------------------------------
DR11      -2.45 dB   -16.10 dB      5:40 01-Love Is A Rock
DR11      -1.91 dB   -15.66 dB      4:53 02-The Heart Survives
DR12      -1.15 dB   -13.89 dB      4:02 03-Live It Up
DR11      -1.62 dB   -14.09 dB      4:12 04-All Heaven Broke Loose
DR11      -1.59 dB   -14.80 dB      4:37 05-Love In The Future
DR11      -2.16 dB   -15.93 dB      4:20 06-Half Way
DR11      -1.81 dB   -14.28 dB      4:10 07-Love To Hate
DR12      -1.52 dB   -14.44 dB      3:24 08-You Won't See Me
DR12      -2.12 dB   -16.42 dB      4:37 09-Can't Lie To My Heart
DR11      -2.49 dB   -15.05 dB      3:14 10-L.I.A.R
DR11      -1.11 dB   -13.83 dB      3:36 11-Go For Broke
--------------------------------------------------------------------------------

Number of tracks:  11
Official DR value: DR11

Samplerate:        96000 Hz
Channels:          2
Bits per sample:   24
Bitrate:           3093 kbps
Codec:             FLAC
================================================================================

Код:
Dynamic Range Meter 1.1.1
log date: 2017-09-10 14:23:08

--------------------------------------------------------------------------------
Analyzed: Iggy Pop / Brick By Brick
--------------------------------------------------------------------------------

DR         Peak         RMS     Duration Track
--------------------------------------------------------------------------------
DR11      -3.07 dB   -15.69 dB      4:03 01-Home
DR11      -2.77 dB   -16.36 dB      3:42 02-Main Street Eyes
DR11      -2.82 dB   -16.83 dB      4:02 03-I Won't Crap Out
DR11      -1.16 dB   -14.44 dB      4:15 04-Candy
DR10      -2.69 dB   -15.01 dB      3:34 05-Butt Town
DR12      -2.50 dB   -15.80 dB      5:05 06-The Undefeated
DR11      -5.03 dB   -19.78 dB      3:32 07-Moonlight Lady
DR12      -4.09 dB   -17.57 dB      3:59 08-Something Wild
DR11      -4.54 dB   -17.03 dB      7:09 09-Neon Forest
DR12      -3.89 dB   -18.49 dB      3:58 10-Starry Night
DR10      -4.51 dB   -17.27 dB      2:52 11-Pussy Power
--------------------------------------------------------------------------------

Number of tracks:  11
Official DR value: DR11

Samplerate:        96000 Hz
Channels:          2
Bits per sample:   24
Bitrate:           3061 kbps
Codec:             FLAC
================================================================================
__________________










Ccылка на тему: Как скачивать с Яндекс диска!

Чтобы быстро скачать чужой опубликованный файл, сохраните его на свой Диск. На вашем Диске файл окажется мгновенно, а свои файлы вы всегда можете скачать без ограничений. Для этого нужно пройти регистрацию на https://mail.yandex.ru/

Если вам нечего делать, то не надо делать это у нас на форуме!!!
Водитель в России должен уметь обруливать ямы, уворачиваться от обруливающих ямы, от лихачей, пешеходов и долбо...бов...


Не работают ссылки, не надо флудить в теме. Сообщите ЗДЕСЬ!




Форум не против размещения раздач на других ресурсах. Скачал и не оставил комментарий - понизил релизёру мотивацию делиться с окружающими!

Команда Все Тут желает Вам приятного прослушивания!



Дмитрий вне форума   Ответить с цитированием
Пользователь сказал cпасибо:
Борис 63 (10.09.2017)
Ответ

Закладки

Опции темы
Опции просмотра

Ваши права в разделе
Вы не можете создавать новые темы
Вы не можете отвечать в темах
Вы не можете прикреплять вложения
Вы не можете редактировать свои сообщения

BB коды Вкл.
Смайлы Вкл.
[IMG] код Вкл.
HTML код Выкл.

Быстрый переход


Часовой пояс GMT, время: 04:39.


Powered by vBulletin® Version 3.8.2
Copyright ©2000 - 2017, Jelsoft Enterprises Ltd. Перевод: zCarot
Rambler's Top100 Республика Татарстан - Каталог сайтов