Все Тут Online
Все Тут Online
Новые сообщения
Все сообщения за последних 24 часа
Расширенный Поиск

   
Меню сайта:
Главная
Форум
Чат
- Online приложения:
- Игры
- Выбор стиля:
- FAQ
- Для начинающих

Вернуться   Все Тут Online > CD (Компакт диски) Lossless - МУЗЫКА БЕЗ ПОТЕРИ КАЧЕСТВА > ШАНСОН, АВТОРСКАЯ и ВОЕННАЯ ПЕСНЯ (Lossless) > Отечественный шансон (lossless)

Старый 14.12.2008, 11:54   #1
Дмитрий
Music Group
 
Аватар для Дмитрий
 

Регистрация: 12.12.2008
Адрес: Москва прошлого тысячелетия.
Сообщений: 141,543
Сказал(а) спасибо: 32,253
Поблагодарили 158,824 раз(а) в 57,950 сообщениях
Дмитрий репутация неоспоримаДмитрий репутация неоспоримаДмитрий репутация неоспоримаДмитрий репутация неоспоримаДмитрий репутация неоспоримаДмитрий репутация неоспоримаДмитрий репутация неоспоримаДмитрий репутация неоспоримаДмитрий репутация неоспоримаДмитрий репутация неоспоримаДмитрий репутация неоспорима
По умолчанию Аня Воробей и гр. Рок-Острова АУДИОСЕРИАЛ "Котуйская история" 1, Коллекция [LossLess]

Аня Воробей & группа "Рок-Острова" - Аудиосериал "Котуйская история"



Жанр: Шансон
Год выпуска диска: 2001-2003
Производитель диска: Россия
Аудио кодек: FLAC
Тип рипа: image+.cue
Битрейт аудио: lossless


2001 - Часть 1. Ворона



Трэклист:

01. Ворона (4:42)
02. Расконвойный (5:14)
03. Встреча (3:41)
04. Побег (4:30)
05. Иван (3:44)
06. Осень на Севере (2:42)
07. Волки (5:20)
08. Рождественский снег (3:48)
09. Разговор с сыном (3:34)
10. Колыбельная (1:58)
11. Встреча (Сон) (3:23)


Продолжительность: 42:35



Скачать:

Скрытый текст (вы должны зарегистрироваться или войти под своим логином):
У вас нет прав чтобы видеть скрытый текст, содержащейся здесь.


2001 - Часть 2. Шаман




Исполнитель: Аня Воробей & гр.Рок Острова
Название диска: Аудиосериал Котуйская история (Часть 2) - "Шаман"
Жанр: Шансон
Год выпуска: 2002
Количество треков: 11
Формат: LossLess (Flac+Cue)


Продюсирование, производство — Компания «Союз Продакшн»
Идея проекта — Вячеслав Клименков
Продюсеры записи — Владимир Захаров, Язнур
Директор проекта — Елена Подколзина-Никольская
Сведение, гитара — Язнур
Аранжировка, исполнитель мужского вокала — Владимир Захаров /«Рок-Острова»/
Исполнитель женского вокала — Аня Воробей
Звукоинженеры — Андрей Кучеренко, Константин Ясинский
Мастеринг — Владимир Захаров, Константин Ясинский


Tracklist:

01. Белое безмолвие
02. Шаман
03. Лёха - Змей
04. В дорогу
05. На Красноярск
06. У Стрехи
07. Материнские слёзы
08. Притча
09. Здравствуй, Питер
10. В ресторане
11. Сходняк




Скачать:

Скрытый текст (вы должны зарегистрироваться или войти под своим логином):
У вас нет прав чтобы видеть скрытый текст, содержащейся здесь.
Дмитрий вне форума   Ответить с цитированием
4 пользователя(ей) сказали cпасибо:
Евгений80 (14.07.2015), маст (26.02.2017), SIBDIM (13.04.2018), VVS.BY (23.05.2015)
Старый 19.01.2010, 17:14   #2
Tolik38
Команда
 
Аватар для Tolik38
 

Регистрация: 12.08.2009
Сообщений: 1,287
Сказал(а) спасибо: 2,887
Поблагодарили 4,939 раз(а) в 821 сообщениях
Tolik38 репутация неоспоримаTolik38 репутация неоспоримаTolik38 репутация неоспоримаTolik38 репутация неоспоримаTolik38 репутация неоспоримаTolik38 репутация неоспоримаTolik38 репутация неоспоримаTolik38 репутация неоспоримаTolik38 репутация неоспоримаTolik38 репутация неоспоримаTolik38 репутация неоспорима
По умолчанию Воробей Аня и гр.Рок-Острова (Котуйская история) - Часть 3. Сын (2002) Lossless

2002 - Часть 3. Сын



Исполнитель: Аня Воробей и гр. РОК-ОСТРОВА
Альбом: Котуйская история часть 3 «Сын»
Год записи: 2002
Формат: FLAC
Тип рипа: image+.cue
Битрейт аудио: lossless
Размер: 344 mb
Время: 43:50

01. Старые листья
02. Зима на сердце
03. Сын
04. На Матросской тишине
05. Четыре стены
06. Трасса
07. Журавлик
08. Письмецо
09. Разбор
10. Кум
11. Навсегда

EAC, FLAC, CUE, LOG, Covers
добавлено 3% на восстановление
в архив вложены сканы в разрешении 600 dpi



Скрытый текст (вы должны зарегистрироваться или войти под своим логином):
У вас нет прав чтобы видеть скрытый текст, содержащейся здесь.



Цитата:
Exact Audio Copy V0.99 prebeta 5 from 4. May 2009

Отчёт EAC об извлечении, выполненном 19. января 2010, 0:25

Аня Воробей и Рок-острова / Котуйская история часть 3 "Сын"

Дисковод: _NEC DVD_RW ND-3500AG Adapter: 3 ID: 0

Режим чтения : Достоверность
Использование точного потока : Да
Отключение кэша аудио : Да
Использование указателей C2 : Нет

Коррекция смещения при чтении : 48
Способность читать области Lead-in и Lead-out : Нет
Заполнение пропущенных сэмплов тишиной : Да
Удаление блоков с тишиной в начале и конце : Нет
При вычислениях CRC использовались нулевые сэмплы : Да
Интерфейс : Установленный внешний ASPI-интерфейс

Выходной формат : Внутренние WAV-операции
Формат сэмплов : 44.100 Гц; 16 бит; стерео


TOC извлечённого CD

Трек | Старт | Длительность | Начальный сектор | Конечный сектор
---------------------------------------------------------------------
1 | 0:00.00 | 4:18.10 | 0 | 19359
2 | 4:18.10 | 3:46.29 | 19360 | 36338
3 | 8:04.39 | 3:41.51 | 36339 | 52964
4 | 11:46.15 | 3:35.40 | 52965 | 69129
5 | 15:21.55 | 3:34.24 | 69130 | 85203
6 | 18:56.04 | 4:51.24 | 85204 | 107052
7 | 23:47.28 | 3:26.04 | 107053 | 122506
8 | 27:13.32 | 4:00.00 | 122507 | 140506
9 | 31:13.32 | 4:59.02 | 140507 | 162933
10 | 36:12.34 | 3:22.46 | 162934 | 178129
11 | 39:35.05 | 4:15.18 | 178130 | 197272


Характеристики диапазона извлечения и сообщения об ошибках

Выбранный диапазон

Имя файла C:\Documents and Settings\Admin\Рабочий стол\Котуйская история\Часть 3-Сын\Аня Воробей и Рок-острова - Котуйская история часть 3 Сын.wav

Пиковый уровень 98.9 %
Качество диапазона 100.0 %
CRC копии C933DFAA
Копирование... OK

Ошибок не произошло

Конец отчёта

Последний раз редактировалось Варнак; 04.07.2010 в 11:28.
Tolik38 вне форума   Ответить с цитированием
5 пользователя(ей) сказали cпасибо:
Евгений80 (14.07.2015), Дмитрий (19.01.2010), SIBDIM (13.04.2018), vlf (19.01.2010)
Старый 19.01.2010, 18:47   #3
Tolik38
Команда
 
Аватар для Tolik38
 

Регистрация: 12.08.2009
Сообщений: 1,287
Сказал(а) спасибо: 2,887
Поблагодарили 4,939 раз(а) в 821 сообщениях
Tolik38 репутация неоспоримаTolik38 репутация неоспоримаTolik38 репутация неоспоримаTolik38 репутация неоспоримаTolik38 репутация неоспоримаTolik38 репутация неоспоримаTolik38 репутация неоспоримаTolik38 репутация неоспоримаTolik38 репутация неоспоримаTolik38 репутация неоспоримаTolik38 репутация неоспорима
По умолчанию Воробей Аня и гр.Рок-Острова (Котуйская история) - Часть 4. Кум (2002) Lossless

2002 - Часть 4. Кум



Исполнитель: Аня Воробей и гр. РОК-ОСТРОВА
Альбом: Котуйская история часть 4 «Кум»
Год записи: 2002
Формат: FLAC
Тип рипа: image+.cue
Битрейт аудио: lossless
Размер: 302 mb
Время: 40:03

01. У Чена
02. Великий город
03. Вся жизнь
04. Разговор с кумом
05. Тишина
06. Шара
07. Решение
08. Отель «Балчуг»
09. Передача
10. Отец Лука
11. Полковник

EAC, FLAC, CUE, LOG, Covers
добавлено 3% на восстановление
в архив вложены сканы в разрешении 600 dpi



Скрытый текст (вы должны зарегистрироваться или войти под своим логином):
У вас нет прав чтобы видеть скрытый текст, содержащейся здесь.



Цитата:
Exact Audio Copy V0.99 prebeta 5 from 4. May 2009

Отчёт EAC об извлечении, выполненном 19. января 2010, 0:42

Аня Воробей и Рок-острова / Котуйская история часть 4 Кум

Дисковод: _NEC DVD_RW ND-3500AG Adapter: 3 ID: 0

Режим чтения : Достоверность
Использование точного потока : Да
Отключение кэша аудио : Да
Использование указателей C2 : Нет

Коррекция смещения при чтении : 48
Способность читать области Lead-in и Lead-out : Нет
Заполнение пропущенных сэмплов тишиной : Да
Удаление блоков с тишиной в начале и конце : Нет
При вычислениях CRC использовались нулевые сэмплы : Да
Интерфейс : Установленный внешний ASPI-интерфейс

Выходной формат : Внутренние WAV-операции
Формат сэмплов : 44.100 Гц; 16 бит; стерео


TOC извлечённого CD

Трек | Старт | Длительность | Начальный сектор | Конечный сектор
---------------------------------------------------------------------
1 | 0:00.00 | 4:02.51 | 0 | 18200
2 | 4:02.51 | 4:22.36 | 18201 | 37886
3 | 8:25.12 | 3:32.17 | 37887 | 53803
4 | 11:57.29 | 3:09.06 | 53804 | 67984
5 | 15:06.35 | 4:13.70 | 67985 | 87029
6 | 19:20.30 | 2:55.42 | 87030 | 100196
7 | 22:15.72 | 2:23.25 | 100197 | 110946
8 | 24:39.22 | 3:27.06 | 110947 | 126477
9 | 28:06.28 | 2:39.18 | 126478 | 138420
10 | 30:45.46 | 3:07.69 | 138421 | 152514
11 | 33:53.40 | 6:10.34 | 152515 | 180298


Характеристики диапазона извлечения и сообщения об ошибках

Выбранный диапазон

Имя файла C:\Documents and Settings\Admin\Рабочий стол\Котуйская история\Часть 4-Кум\Аня Воробей и Рок-острова - Котуйская история часть 4 Кум.wav

Пиковый уровень 98.8 %
Качество диапазона 100.0 %
CRC копии 3CAA17EC
Копирование... OK

Ошибок не произошло

Конец отчёта

Последний раз редактировалось Варнак; 04.07.2010 в 11:30.
Tolik38 вне форума   Ответить с цитированием
6 пользователя(ей) сказали cпасибо:
Евгений80 (14.07.2015), Дмитрий (19.01.2010), SIBDIM (13.04.2018), Tomas (19.01.2010), vlf (22.01.2010)
Старый 20.01.2010, 17:06   #4
Tolik38
Команда
 
Аватар для Tolik38
 

Регистрация: 12.08.2009
Сообщений: 1,287
Сказал(а) спасибо: 2,887
Поблагодарили 4,939 раз(а) в 821 сообщениях
Tolik38 репутация неоспоримаTolik38 репутация неоспоримаTolik38 репутация неоспоримаTolik38 репутация неоспоримаTolik38 репутация неоспоримаTolik38 репутация неоспоримаTolik38 репутация неоспоримаTolik38 репутация неоспоримаTolik38 репутация неоспоримаTolik38 репутация неоспоримаTolik38 репутация неоспорима
По умолчанию Воробей Аня и гр.Рок-Острова (Котуйская история) - Часть 5. Звонарь (2003) Lossless

2003 - Часть 5. Звонарь



Исполнитель: Аня Воробей и гр. РОК-ОСТРОВА
Альбом: Котуйская история часть 5 «Звонарь»
Год записи: 2003
Формат: FLAC
Тип рипа: image+.cue
Битрейт аудио: lossless
Размер: 342 mb
Время: 44:08

01. Звонарь
02. Мама, всё будет хорошо
03. По городу
04. Проживём
05. Пайка счастья
06. Причастие
07. Июньская жара
08. Алик
09. Ты меня жди
10. Вечность
11. Котуйская история

EAC, FLAC, CUE, LOG, Covers
добавлено 3% на восстановление
в архив вложены сканы в разрешении 600 dpi



Скрытый текст (вы должны зарегистрироваться или войти под своим логином):
У вас нет прав чтобы видеть скрытый текст, содержащейся здесь.



Цитата:
Exact Audio Copy V0.99 prebeta 5 from 4. May 2009

Отчёт EAC об извлечении, выполненном 19. января 2010, 1:03

Аня Воробей и Рок-Острова / Котуйская история часть 5 Звонарь

Дисковод: _NEC DVD_RW ND-3500AG Adapter: 3 ID: 0

Режим чтения : Достоверность
Использование точного потока : Да
Отключение кэша аудио : Да
Использование указателей C2 : Нет

Коррекция смещения при чтении : 48
Способность читать области Lead-in и Lead-out : Нет
Заполнение пропущенных сэмплов тишиной : Да
Удаление блоков с тишиной в начале и конце : Нет
При вычислениях CRC использовались нулевые сэмплы : Да
Интерфейс : Установленный внешний ASPI-интерфейс

Выходной формат : Внутренние WAV-операции
Формат сэмплов : 44.100 Гц; 16 бит; стерео


TOC извлечённого CD

Трек | Старт | Длительность | Начальный сектор | Конечный сектор
---------------------------------------------------------------------
1 | 0:00.00 | 4:08.07 | 0 | 18606
2 | 4:08.07 | 3:34.00 | 18607 | 34656
3 | 7:42.07 | 4:54.18 | 34657 | 56724
4 | 12:36.25 | 3:23.15 | 56725 | 71964
5 | 15:59.40 | 3:38.08 | 71965 | 88322
6 | 19:37.48 | 3:37.02 | 88323 | 104599
7 | 23:14.50 | 3:54.26 | 104600 | 122175
8 | 27:09.01 | 3:22.15 | 122176 | 137340
9 | 30:31.16 | 4:19.34 | 137341 | 156799
10 | 34:50.50 | 4:29.13 | 156800 | 176987
11 | 39:19.63 | 4:48.19 | 176988 | 198606


Характеристики диапазона извлечения и сообщения об ошибках

Выбранный диапазон

Имя файла C:\Documents and Settings\Admin\Рабочий стол\Котуйская история\Часть 5-Звонарь\Аня Воробей и Рок-Острова - Котуйская история часть 5 Звонарь.wav

Пиковый уровень 98.8 %
Качество диапазона 100.0 %
CRC копии 1A888780
Копирование... OK

Ошибок не произошло

Конец отчёта

Последний раз редактировалось Варнак; 04.07.2010 в 11:32.
Tolik38 вне форума   Ответить с цитированием
12 пользователя(ей) сказали cпасибо:
Евгений80 (31.10.2014), Геннади (22.11.2013), Владимир 1733 (07.10.2018), Дмитрий (20.01.2010), параллепипед (16.11.2013), Korvet (06.05.2011), Синдикат (13.07.2015), SIBDIM (13.04.2018), Tomas (20.01.2010), vlf (20.01.2010), VVS.BY (23.05.2015)
Старый 06.05.2011, 12:01   #5
Дмитрий
Music Group
 
Аватар для Дмитрий
 

Регистрация: 12.12.2008
Адрес: Москва прошлого тысячелетия.
Сообщений: 141,543
Сказал(а) спасибо: 32,253
Поблагодарили 158,824 раз(а) в 57,950 сообщениях
Дмитрий репутация неоспоримаДмитрий репутация неоспоримаДмитрий репутация неоспоримаДмитрий репутация неоспоримаДмитрий репутация неоспоримаДмитрий репутация неоспоримаДмитрий репутация неоспоримаДмитрий репутация неоспоримаДмитрий репутация неоспоримаДмитрий репутация неоспоримаДмитрий репутация неоспорима
По умолчанию

Аудиосериал Котуйка-1 объединил для наглядности в общую тему
Дмитрий вне форума   Ответить с цитированием
4 пользователя(ей) сказали cпасибо:
Евгений80 (31.10.2014), Korvet (06.05.2011), less16 (21.07.2018), SIBDIM (13.04.2018)
Старый 26.11.2012, 01:23   #6
Дмитрий
Music Group
 
Аватар для Дмитрий
 

Регистрация: 12.12.2008
Адрес: Москва прошлого тысячелетия.
Сообщений: 141,543
Сказал(а) спасибо: 32,253
Поблагодарили 158,824 раз(а) в 57,950 сообщениях
Дмитрий репутация неоспоримаДмитрий репутация неоспоримаДмитрий репутация неоспоримаДмитрий репутация неоспоримаДмитрий репутация неоспоримаДмитрий репутация неоспоримаДмитрий репутация неоспоримаДмитрий репутация неоспоримаДмитрий репутация неоспоримаДмитрий репутация неоспоримаДмитрий репутация неоспорима
По умолчанию

Аудиосериал обновлен.
Команда нашего сайта желает Вам приятного прослушивания!
Дмитрий вне форума   Ответить с цитированием
2 пользователя(ей) сказали cпасибо:
Евгений80 (31.10.2014), SIBDIM (13.04.2018)
Старый 13.07.2015, 15:19   #7
Синдикат
Местный
 
Аватар для Синдикат
 

Регистрация: 15.08.2012
Адрес: Житель вселенной
Сообщений: 9,164
Сказал(а) спасибо: 7,865
Поблагодарили 10,625 раз(а) в 5,300 сообщениях
Синдикат репутация неоспоримаСиндикат репутация неоспоримаСиндикат репутация неоспоримаСиндикат репутация неоспоримаСиндикат репутация неоспоримаСиндикат репутация неоспоримаСиндикат репутация неоспоримаСиндикат репутация неоспоримаСиндикат репутация неоспоримаСиндикат репутация неоспоримаСиндикат репутация неоспорима
По умолчанию

Сюжет аудиосериала

Основной темой является история любви заключенного по кличке «Змей» и молодой красивой девушки по прозвищу «Ворона», проходящей через испытания трудностями, разлукой и временем. События разворачиваются в период — от начала перестройки до наших дней.

Часть 1. Ворона

Действие изначально начинается в колонии для заключенных, расположенной на реке Котуй, где зэки сплавляют лес.

Весной майор по кличке «Кум» привез в колонию молодую, очень красивую жену «Лялю», которой дали прозвище «Ворона» за чёрный цвет волос. Однажды заключенный Леха — «Змей» (получил кличку за наколку на груди, изображающей змея) случайно встретился с «Вороной», когда возвращался с лесоповала и узнал в ней девушку, которую любил, когда был на свободе. Сначала его очень сильно разозлило, что она не дождалась его и вышла замуж, но как оказалось «Ворона» сделала это специально, чтобы законным путём попасть на территорию лагеря. «Змей» и «Ворона» решили бежать, сплавляясь на плоту по реке, но их настигли. Девушку тяжело ранили и тогда «Змей», решив, что она умирает, спрыгнул с ней с обрыва. Геолог Иван, слышавший крики и стрельбу, нашёл тело «Вороны» и ушёл с ней в тайгу. Он выходил её. Как оказалось, она была беременна от Лехи Змея. Когда Иван и «Ворона» пробирались через сопки за ними увязалась голодная стая волков. Чтобы спасти девушку, Иван спрятал её полузамерзшую в тулуп под снег, а сам застрелился, чтобы стая отстала.

Прошли годы. «Ворона» родила сына и жила в Москве.

Часть 2. Шаман

Как оказалось, «Змей» тоже выжил и жил все эти годы в тайге. «Северный люд» считал его шаманом. Леха возвратился в Москву вместе с отрядом геологов, работавших в тайге. На родине он встретился с матерью и уехал в Питер, где его принял к себе авторитетный вор в законе, с которым Леха познакомился ещё в колонии на Котуе. С тех пор у него новая кличка «Шаман».

Прошло ещё несколько лет. «Шаман» стал одним из видных деятелей криминального мира. Из Москвы пришло известие об убийстве авторитета «Лысого». Леха отправился в столицу.

Часть 3. Сын

Оказывается «Лысого» убил сын «Вороны» и «Шамана» из именного пистолета «Кума» (который был у него украден при побеге) за то что тот ударил его мать. Всем понятно, что за убийство авторитета, мальчика и его мать будут преследовать, поэтому его просили рассказать все, что знает, но он отказался. В криминальных кругах все были взолнованы произошедшим: Алик, брат «Лысого», требовал расправы, но «Шаман» высказался против. «Кум» теперь уже в звании полковника работал в Москве. Ему предъявили его именной пистолет в качестве улики. Полковник решил спасти мальчика.

Часть 4. Кум

«Шаман» пришёл к китайцу Чену, чтобы тот мог провести над ним ритуал. Во время сеанса «Шамана» посетило видение о том, что «Ворона» спаслась. «Кум» предложил «Вороне» спасти её сына. Он устроил ему побег из Матросской тишины, во время которого сам был убит.

Часть 5. Звонарь

«Ворона» отправилась с сыном в мордовский монастырь, чтобы спрятать его, но на четыре дня они остановились в церкви Иоанна Предтече. «Шаман», как оказалось, тоже ходил в эту церковь. Там они встретились с «Вороной» и сыном. Алику доложили, что убийца его брата сын «Шамана». Он увез «Шамана» в неизвестном направлении. Леха вернулся через три недели.
История

В 2001 году лидеру группы Рок-острова Владимиру Захарову, поступило предложение от «Союз Продакшн» сделать аранжировки к проекту «Котуйская история», с которого должна была начаться раскрутка Ани Воробей. Впоследствии Захаров стал исполнителем мужского вокала. Изначально планировалось выпустить только один альбом, но после выхода части «Ворона» в «Союз Продакшн» стали приходить письма с просьбой рассказать, что было дальше — в итоге в дополнение к первому было выпущено ещё четыре альбома.

В 2003 году был выпущен второй аудиосериал «Котуйская история-2. Непрощенные», рассказывающий предысторию главных героев.

Участники

* Аранжировка, исполнитель мужского вокала — Владимир Захаров (гр. Рок-острова)
* Исполнитель женского вокала — Аня Воробей
* Продюсирование: Компания «Союз Продакшн»
* Идея проекта — Вячеслав Клименков
* Продюсер записи, сведение — Язнур
* Директор проекта — Елена Подколзина-Никольская
* Звукоинженер — Константин Ясинский
* Мастеринг — Андрей Субботин
* Дизайн, художник — Владимир Волегов
__________________
Ccылка на тему: Как скачивать с Яндекс диска!

Чтобы быстро скачать чужой опубликованный файл, сохраните его на свой Диск. На вашем Диске файл окажется мгновенно, а свои файлы вы всегда можете скачать без ограничений.

Кто владеет и управляет прошлым , тот владеет настоящим и будущим.

Синдикат вне форума   Ответить с цитированием
2 пользователя(ей) сказали cпасибо:
Евгений80 (14.07.2015), SIBDIM (13.04.2018)
Старый 19.07.2018, 19:21   #8
ИванГай
Новичок
 

Регистрация: 19.07.2018
Сообщений: 1
Сказал(а) спасибо: 0
Поблагодарили 0 раз(а) в 0 сообщениях
ИванГай на пути к лучшему
По умолчанию

Спасибо большое, матери скачал)
ИванГай вне форума   Ответить с цитированием
Старый 07.10.2018, 07:30   #9
Locomotiff
Пользователь
 

Регистрация: 27.05.2010
Сообщений: 37
Сказал(а) спасибо: 2
Поблагодарили 7 раз(а) в 7 сообщениях
Locomotiff на пути к лучшему
По умолчанию

Спасибо большое, давно хотел послушать.
Locomotiff вне форума   Ответить с цитированием
Ответ

Закладки

Метки
котуйская история, lossless, скачать, часть 3 "сын", часть 4 "кум", часть 5 "звонарь"

Опции темы
Опции просмотра

Ваши права в разделе
Вы не можете создавать новые темы
Вы не можете отвечать в темах
Вы не можете прикреплять вложения
Вы не можете редактировать свои сообщения

BB коды Вкл.
Смайлы Вкл.
[IMG] код Вкл.
HTML код Выкл.

Быстрый переход


Часовой пояс GMT, время: 19:40.


Powered by vBulletin® Version 3.8.2
Copyright ©2000 - 2020, Jelsoft Enterprises Ltd. Перевод: zCarot
Rambler's Top100 Республика Татарстан - Каталог сайтов