Все Тут Online
Все Тут Online
Новые сообщения
Все сообщения за последних 24 часа
Расширенный Поиск

   
Меню сайта:
Главная
Форум
Чат
- Online приложения:
- Игры
- Выбор стиля:
- FAQ
- Для начинающих

Вернуться   Все Тут Online > ОЦИФРОВКИ ВИНИЛА (Lossless) > ШАНСОН, АВТОРСКАЯ и ВОЕННАЯ ПЕСНЯ (Lossless) > Отечественный шансон (lossless)

Ответ
 
Опции темы Опции просмотра
Старый 06.12.2019, 12:21   #11
Дмитрий
Music Group
 
Аватар для Дмитрий
 

Регистрация: 12.12.2008
Адрес: Москва прошлого тысячелетия.
Сообщений: 146,915
Сказал(а) спасибо: 32,603
Поблагодарили 163,065 раз(а) в 59,420 сообщениях
Дмитрий репутация неоспоримаДмитрий репутация неоспоримаДмитрий репутация неоспоримаДмитрий репутация неоспоримаДмитрий репутация неоспоримаДмитрий репутация неоспоримаДмитрий репутация неоспоримаДмитрий репутация неоспоримаДмитрий репутация неоспоримаДмитрий репутация неоспоримаДмитрий репутация неоспорима
По умолчанию

аист, классный диск! Большое спасибо!
Дмитрий вне форума   Ответить с цитированием
Старый 06.12.2019, 12:25   #12
Дмитрий
Music Group
 
Аватар для Дмитрий
 

Регистрация: 12.12.2008
Адрес: Москва прошлого тысячелетия.
Сообщений: 146,915
Сказал(а) спасибо: 32,603
Поблагодарили 163,065 раз(а) в 59,420 сообщениях
Дмитрий репутация неоспоримаДмитрий репутация неоспоримаДмитрий репутация неоспоримаДмитрий репутация неоспоримаДмитрий репутация неоспоримаДмитрий репутация неоспоримаДмитрий репутация неоспоримаДмитрий репутация неоспоримаДмитрий репутация неоспоримаДмитрий репутация неоспоримаДмитрий репутация неоспорима
По умолчанию

У нас ещё вот такой есть, магнитолента катушка - ещё лучше

The World of Music Russia (Lossless)24.96

PERFORMER "The World of Music Russia"
TITLE "Магнитоальбом"
FILE "The World of Music RUSSIA.flac" WAVE
TRACK 01 AUDIO
TITLE "Kalinka"
INDEX 01 00:00:63
TRACK 02 AUDIO
TITLE "Moskovskija okna"
INDEX 01 03:09:32
TRACK 03 AUDIO
TITLE "Boublitschki"
INDEX 01 06:39:13
TRACK 04 AUDIO
TITLE "Otchi chhornyie"
INDEX 01 09:25:10
TRACK 05 AUDIO
TITLE "Gopak"
INDEX 01 12:32:53
TRACK 06 AUDIO
TITLE "Droujba"
INDEX 01 15:51:29
TRACK 07 AUDIO
TITLE "Instrumental"
INDEX 01 19:26:05
TRACK 08 AUDIO
TITLE "Dvie guitary"
INDEX 01 21:00:48
TRACK 09 AUDIO
TITLE "Yoska Yoska"
INDEX 01 25:14:55
TRACK 10 AUDIO
TITLE "Tscto za khorr"
INDEX 01 28:46:19
TRACK 11 AUDIO
TITLE "Matoushka"
INDEX 01 31:22:72
TRACK 12 AUDIO
TITLE "My little Gypsies"
INDEX 01 33:51:57
TRACK 13 AUDIO
TITLE "Instrumental"
INDEX 01 35:29:45
TRACK 14 AUDIO
TITLE "Vi osseniy dienn"
INDEX 01 38:02:28
TRACK 15 AUDIO
TITLE "Halvany sarga rosza"
INDEX 01 40:25:63
TRACK 16 AUDIO
TITLE "Gari Gari"
INDEX 01 43:49:33
Дмитрий вне форума   Ответить с цитированием
Старый 06.12.2019, 12:29   #13
Дмитрий
Music Group
 
Аватар для Дмитрий
 

Регистрация: 12.12.2008
Адрес: Москва прошлого тысячелетия.
Сообщений: 146,915
Сказал(а) спасибо: 32,603
Поблагодарили 163,065 раз(а) в 59,420 сообщениях
Дмитрий репутация неоспоримаДмитрий репутация неоспоримаДмитрий репутация неоспоримаДмитрий репутация неоспоримаДмитрий репутация неоспоримаДмитрий репутация неоспоримаДмитрий репутация неоспоримаДмитрий репутация неоспоримаДмитрий репутация неоспоримаДмитрий репутация неоспоримаДмитрий репутация неоспорима
По умолчанию

Там качество - Максу и Якову (ник "не важно") такое не снилось.
Дмитрий вне форума   Ответить с цитированием
Старый 07.12.2019, 15:12   #14
аист
Модератор
 

Регистрация: 15.12.2009
Сообщений: 519
Сказал(а) спасибо: 1,499
Поблагодарили 607 раз(а) в 276 сообщениях
аист репутация неоспоримааист репутация неоспоримааист репутация неоспоримааист репутация неоспоримааист репутация неоспоримааист репутация неоспоримааист репутация неоспоримааист репутация неоспоримааист репутация неоспоримааист репутация неоспоримааист репутация неоспорима
По умолчанию

Цитата:
Сообщение от Дмитрий Посмотреть сообщение
У нас ещё вот такой есть, магнитолента катушка - ещё лучше

The World of Music Russia (Lossless)24.96
Дмитрий, у меня эта пластинка 16/44.1
Можно ссылку на 24/96?
__________________
Мои старые ссылки удалены. Заинтересованные обращаются в личку или на сайт.
аист вне форума   Ответить с цитированием
Старый 07.12.2019, 15:21   #15
Дмитрий
Music Group
 
Аватар для Дмитрий
 

Регистрация: 12.12.2008
Адрес: Москва прошлого тысячелетия.
Сообщений: 146,915
Сказал(а) спасибо: 32,603
Поблагодарили 163,065 раз(а) в 59,420 сообщениях
Дмитрий репутация неоспоримаДмитрий репутация неоспоримаДмитрий репутация неоспоримаДмитрий репутация неоспоримаДмитрий репутация неоспоримаДмитрий репутация неоспоримаДмитрий репутация неоспоримаДмитрий репутация неоспоримаДмитрий репутация неоспоримаДмитрий репутация неоспоримаДмитрий репутация неоспорима
По умолчанию

аист, я в личку
потому что тот раздел закрытый
Дмитрий вне форума   Ответить с цитированием
Пользователь сказал cпасибо:
аист (07.12.2019)
Старый 03.07.2020, 21:57   #16
Дмитрий
Music Group
 
Аватар для Дмитрий
 

Регистрация: 12.12.2008
Адрес: Москва прошлого тысячелетия.
Сообщений: 146,915
Сказал(а) спасибо: 32,603
Поблагодарили 163,065 раз(а) в 59,420 сообщениях
Дмитрий репутация неоспоримаДмитрий репутация неоспоримаДмитрий репутация неоспоримаДмитрий репутация неоспоримаДмитрий репутация неоспоримаДмитрий репутация неоспоримаДмитрий репутация неоспоримаДмитрий репутация неоспоримаДмитрий репутация неоспоримаДмитрий репутация неоспоримаДмитрий репутация неоспорима
По умолчанию

++
Дмитрий вне форума   Ответить с цитированием
Ответ

Закладки

Опции темы
Опции просмотра

Ваши права в разделе
Вы не можете создавать новые темы
Вы не можете отвечать в темах
Вы не можете прикреплять вложения
Вы не можете редактировать свои сообщения

BB коды Вкл.
Смайлы Вкл.
[IMG] код Вкл.
HTML код Выкл.

Быстрый переход


Часовой пояс GMT, время: 15:58.


Powered by vBulletin® Version 3.8.2
Copyright ©2000 - 2020, Jelsoft Enterprises Ltd. Перевод: zCarot
Rambler's Top100 Республика Татарстан - Каталог сайтов