Все Тут Online
Все Тут Online
Новые сообщения
Все сообщения за последних 24 часа
Расширенный Поиск

   
Меню сайта:
Главная
Форум
Чат
- Online приложения:
- Игры
- Выбор стиля:
- FAQ
- Для начинающих

Вернуться   Все Тут Online > CD (Компакт диски) Lossless - МУЗЫКА БЕЗ ПОТЕРИ КАЧЕСТВА > Bigger's Mastering Releases

Старый 22.03.2020, 17:49   #1
Дмитрий
Music Group
 
Аватар для Дмитрий
 

Регистрация: 12.12.2008
Адрес: Москва прошлого тысячелетия.
Сообщений: 140,944
Сказал(а) спасибо: 32,217
Поблагодарили 158,290 раз(а) в 57,806 сообщениях
Дмитрий репутация неоспоримаДмитрий репутация неоспоримаДмитрий репутация неоспоримаДмитрий репутация неоспоримаДмитрий репутация неоспоримаДмитрий репутация неоспоримаДмитрий репутация неоспоримаДмитрий репутация неоспоримаДмитрий репутация неоспоримаДмитрий репутация неоспоримаДмитрий репутация неоспорима
По умолчанию Al Di Meola - 2020 - Across The Universe

Скрытый текст (вы должны зарегистрироваться или войти под своим логином):
У вас нет прав чтобы видеть скрытый текст, содержащейся здесь.




Dynamic Range Meter 1.1.1
log date: 2020-03-19 21:14:59

--------------------------------------------------------------------------------
Analyzed: Al Di Meola / Across The Universe
--------------------------------------------------------------------------------

DR Peak RMS Duration Track
--------------------------------------------------------------------------------
DR11 -0.38 dB -14.60 dB 3:27 01-Here Comes The Sun
DR12 -0.12 dB -14.57 dB 6:19 02-Golden Slumbers
DR12 -0.10 dB -15.05 dB 4:35 03-Dear Prudence
DR12 -0.50 dB -14.45 dB 6:07 04-Norwegian Wood
DR12 -1.24 dB -17.19 dB 4:02 05-Mother Nature's Son
DR12 -0.18 dB -16.09 dB 5:48 06-Strawberry Fields Forever
DR13 -0.71 dB -19.46 dB 5:10 07-Yesterday
DR12 -0.32 dB -15.29 dB 4:31 08-Your Mother Should Know
DR11 -1.26 dB -17.02 dB 4:52 09-Hey Jude
DR13 -0.18 dB -17.70 dB 4:29 10-I'll Follow The Sun
DR12 -2.00 dB -16.71 dB 4:43 11-Julia
DR12 -0.62 dB -15.74 dB 4:38 12-Till There Was You
DR13 -6.86 dB -23.22 dB 2:31 13-Here, There And Everywhere
DR11 -1.59 dB -18.37 dB 0:47 14-Octopus's Garden
--------------------------------------------------------------------------------

Number of tracks: 14
Official DR value: DR12

Samplerate: 96000 Hz
Channels: 2
Bits per sample: 24
Bitrate: 2278 kbps
Codec: FLAC
================================================== ==============================


Report generated by the MusicScope 1.5.1 - www.xivero.com

File: 01. Here Comes The Sun.flac

Audio format: PCM
Bit depth: 24 bit
Sample rate: 96.0 kHz

Cut-Off Frequency: --- kHz

TPL Left: -0.4 dB
TPL Right: -0.4 dB
TPL Mid: -2.2 dB
TPL Side: -6.7 dB
RMS Left: -18.4 dB
RMS Right: -16.8 dB
RMS Mid: -18.5 dB
RMS Side: -24.5 dB
CREST Avg.: 9.3 dB
IS L/M: 0
IS R/S: 0

Max. M-Loudness: -11.0 dB
Max. S-Loudness: -11.7 dB
Integrated Loudness: -14.9 dB
Loudness Range: 6.4 dB
PLR Avg.: 7.2 dB

Spectrum:
[kHz] [dB]
1 -19.5
2 -19.8
3 -26.5
4 -35.1
5 -41.2
6 -44.3
7 -48.2
8 -47.5
9 -47.7
10 -52.1
11 -53.2
12 -56.9
13 -60.2
14 -53.7
15 -64.2
16 -65.7
17 -66.1
18 -68.3
19 -70.5
20 -70.6
21 -69.4
22 -73.8
23 -70.0
24 -72.8
25 -73.4
26 -72.5
27 -73.9
28 -75.1
29 -74.1
30 -77.6
31 -76.6
32 -71.3
33 -80.9
34 -80.2
35 -80.3
36 -80.0
37 -82.7
38 -83.9
39 -84.3
40 -83.0
41 -83.6
42 -85.3
43 -86.0
44 -90.5
45 -89.5
46 -89.5
47 -90.9
48 -144.0


Дмитрий вне форума   Ответить с цитированием
6 пользователя(ей) сказали cпасибо:
Бархан (22.03.2020), Александр4937 (22.03.2020), Андрей В. (22.03.2020), Корф (23.03.2020), LonVert (23.03.2020), loszlesz (05.04.2020)
Старый 22.03.2020, 18:06   #2
Бархан
VIP
 
Аватар для Бархан
 

Регистрация: 08.05.2016
Адрес: Выборг Россия
Сообщений: 1,893
Сказал(а) спасибо: 6,633
Поблагодарили 1,452 раз(а) в 816 сообщениях
Бархан репутация неоспоримаБархан репутация неоспоримаБархан репутация неоспоримаБархан репутация неоспоримаБархан репутация неоспоримаБархан репутация неоспоримаБархан репутация неоспоримаБархан репутация неоспоримаБархан репутация неоспоримаБархан репутация неоспоримаБархан репутация неоспорима
По умолчанию

Супер!
Бархан вне форума   Ответить с цитированием
Старый 23.03.2020, 01:43   #3
LonVert
Местный
 
Аватар для LonVert
 

Регистрация: 27.04.2014
Адрес: столица Сибири
Сообщений: 718
Сказал(а) спасибо: 771
Поблагодарили 312 раз(а) в 250 сообщениях
LonVert обеспечил(а) себе прекрасное будущееLonVert обеспечил(а) себе прекрасное будущееLonVert обеспечил(а) себе прекрасное будущееLonVert обеспечил(а) себе прекрасное будущееLonVert обеспечил(а) себе прекрасное будущееLonVert обеспечил(а) себе прекрасное будущееLonVert обеспечил(а) себе прекрасное будущееLonVert обеспечил(а) себе прекрасное будущееLonVert обеспечил(а) себе прекрасное будущееLonVert обеспечил(а) себе прекрасное будущееLonVert обеспечил(а) себе прекрасное будущее
По умолчанию

Уж не с ленноновского "Рок-н-ролла" обложка прототипом служила?!
LonVert вне форума   Ответить с цитированием
Пользователь сказал cпасибо:
ezhipatch (23.03.2020)
Ответ

Закладки

Опции темы
Опции просмотра

Ваши права в разделе
Вы не можете создавать новые темы
Вы не можете отвечать в темах
Вы не можете прикреплять вложения
Вы не можете редактировать свои сообщения

BB коды Вкл.
Смайлы Вкл.
[IMG] код Вкл.
HTML код Выкл.

Быстрый переход


Часовой пояс GMT, время: 22:22.


Powered by vBulletin® Version 3.8.2
Copyright ©2000 - 2020, Jelsoft Enterprises Ltd. Перевод: zCarot
Rambler's Top100 Республика Татарстан - Каталог сайтов